&title=Fairy stage
&artist=Y
&first=-1.25
&des_5=豆子玉腐
&lv_5=14+
&des=豆子玉腐
&inote_5=(128)
{1},
{4}1/5pp8[2:1],E2,E3,E4,8/4qq1[2:1],E8,E7,E6,2v3-1-4[8:5]/6v7-5-8[8:5],,,,
{8}2h[4:1],E5/B4,7h[4:1],E5/B5,3h[4:1],E6/B5,8,,
{4}2qq7[8:5]/4,5,6>3[8:1],6,7pp2[8:5]/4,5,6>3[8:1],6,2-7-2[8:5]/3-6[8:1],,6x-3[8:1],,
{8}1h[4:1],4,7h[4:1],4,1h[4:1],4,7,,
{4}
4>1[8:1]/8<5[8:1],4/8-4[8:1],8/5-8[8:1]*-2[8:1],5,
5<8[8:1]/1>4[8:1],5/1-5[8:1],1/4-1[8:1]*-7[8:1],4,
8<5[8:1]/5-2[8:1],8-3[8:1]/5,7-2[8:1]*-4[8:1]/8,7,
1>4[8:1]/4-7[8:1],1-5[8:1]/4,3-8[8:1]*-6[8:1]/1,3,
7-2[8:1]/2-5[8:1],7/2<5[6:1],4-7[8:1]*-1[8:1],4,
2-7[8:1]/7-4[8:1],2/7>4[6:1],5-2[8:1]*-8[8:1],5,
2-5[8:1]/4-8[8:1],2/4>1[8:1],7-4[8:1]*-2[8:1]/4,7,
{8}5,5h[4:1],6,6h[4:1],7,7h[8:1],8,,
{4}
1-3[8:1]*-5[8:1]/8,1,8-6[8:1]*-4[8:1]/1,8,
2-4<5[8:1]*q6[8:1]/1,2,7-5>4[8:1]*p3[8:1]/8,7,
8/1q5[8:1]*>5[8:1],1,1/8p4[8:1]*<4[8:1],8,
2v5[8:1]*>6[8:1]/1,2,7v4[8:1]*<3[8:1]/8,7,
8-4[8:1]/2-5[8:1],2/8,1-5[8:1]/7-4[8:1],7/1,
7-2[8:1]/2-6[8:1],7/2,2-6[8:1]/6-3[8:1],2/6,
7-3[8:1]/1-4[8:1],7/1,2-6[8:1]/8-5[8:1],2/8,
7-4[8:1]/4-1[8:1],7/4,4<7[8:1]/1>4[8:1],1/4,
{8}
8-6[8:1]*-4[8:1],1/7,8,,1-3[8:1]*-5[8:1],8/2,1,,
7-3[8:1]*-4[8:1],6/8,7,,2-6[8:1]*-5[8:1],3/1,2,,
5-1[8:1]*v8[8:1]/6,4/7,5,,4-8[8:1]*v1[8:1]/3,5/2,4,,
6/4p7[8:1]*v7[8:1],5/3,4,,3/5q2[8:1]*v2[8:1],4/6,5,,
6/4-7[8:1],3,2/4,3,4-1[8:1]/8,7,4/6,5,4-1[8:1]/2,3,4/6,5,
4-7[8:1]/2,1,8/4,1,3/5-2[8:1],4/6,5/7,7,6/4-8[8:1],5/3,4/2,1-6[8:1],1>4[8:1],,,5-1[12:1],5w1[8:1],,,,
{4}
7b-4[8:1]/3b>8[8:1],7-3[8:1]/3,7/5-1[8:1],4/5-8[8:1],7-4[8:1]/5-2[8:1],7q3[8:1]/5,7<4[8:1]*>2[8:1],7,
2-5[8:1]/6<1[8:1],2-6[8:1]/6,2/4-8[8:1],5/4-1[8:1],2-5[8:1]/4-7[8:1],2p6[8:1]/4,2>5[8:1]*<7[8:1],2,
8<5[8:1]/4>1[8:1],4/8-4[8:1],8/4-8[8:1]*-7[8:1],4>1[8:1],1>5[8:1]*<5[8:1]/4,1s5[6:1],7-3[8:1]*-4[8:1],7,
1>5[8:1]/5<1[8:1],5/1-5[8:1],{8}1/4-8[8:1],,4,7,7hx[8:3]/3hx[8:3],,,,{16}8x/4x,8x/4x,7x/3x,7x/3x,6x/2x,6x/2x,5x/1x,5x/1x,
{4}8bx-4[8:1]/4bx<7[8:1],8-5[8:1]/4>1[8:1],8-3[8:1]/4<7[8:1],8z4[6:1]/4,3-8[8:1],2z6[6:1]/3,5v2[8:1]*v8[8:1],5-3[8:1],5/4-6[8:1],5-2[8:1]/4,4-7[8:1]/5-1[8:1],4-8[8:1]/5,5-2[8:1]/4-1[8:1],4-7[8:1]/5,4/5-8[8:1]*-2[8:1],5,
7-4[8:1]/3>8[8:1],3<6[8:1]/7-2[8:1],7v4[8:1]/3>8[8:1],7qq4[8:3]/3,8>3[8:1],8,4q1[8:1]/5v8[8:1],4/5,
2>6[8:1]/6<2[8:1],2-7[8:1]/6,2>6[8:1]/6<2[8:1],2-6[8:1]/6,2>6[8:1]/6<2[8:1],2v7[8:1]/6,2>6[8:1]/6<2[8:1],6/2,
1<6[8:1]/5v2[8:1],1>4[8:1]/5-8[8:1],1v6[8:1]/5-2[8:1],1/5s1[6:1],2-7[8:1],2/4z8[6:1],7-2[8:1]*-4[8:1],7-3[8:1],7/8-5[8:1]*-3[8:1],8-4[8:1],1-6[8:1]*-4[8:1]/8,1-5[8:1],1/7>2[8:1]*<4[8:1],7p3[8:1],7/2>5[8:1]*<7[8:1],2,
4>1[8:1]/8q5[8:1],4<7[8:1]/8p3[8:1],4>1[8:1]/8q5[8:1],4/8pp3[8:3],4<7[8:1],4,4v2[8:1]/8v6[8:1],4/8,
1V35[8:1]/5-1[8:1],1V75[8:1]/5,1V35[8:1]/5-1[8:1],1V75[8:1]/5,1>5[8:1]/5,5-1[8:1]/1<5[8:1],1>5[8:1]/5,1/5,
8<4[8:1]/4-8[8:1],8V24[8:1]/4,8V64[8:1]/4-8[8:1],8>2>4<6<8[16:14]/4V28V64[16:14],,,,,
1b-4[8:1]/3b-1[8:1],1/3<6[8:1],2/3-8[8:1],4-7[8:1]/3,5>2[8:1]*<8[8:1]/4,5q1[8:1],5/3-8[8:1]*-6[8:1],3,
8-5[8:1]/6<8[8:1],8/6-3[8:1],7/6<1[8:1],5>2[8:1]/6,4-7[8:1]*-1[8:1]/5,4-8[8:1],4/7-3[8:1]*<4[8:1],7,
6-1[8:1]/1-5[8:1],6-3[8:1]/1,6-1[8:1]/7,6/5-2[8:1],5/4v7[8:1]*v1[8:1],4-2[8:1]*-6[8:1],4w8[8:1],4,
3-8[8:1]/8-4[8:1],3-6[8:1]/8,3-8[8:1]/2,3/4h[4:1],{8}5h[8:1],6h[8:1],7h[8:1],8h[8:1],
{16}1hx,2hx,3hx,4hx,{32}5x<1[8:1],6x<2[8:1]*<2[8:1],7x>3[8:1]b,8x>4[8:1],5x,6x,7x,8x,
{4}5b>5[8:15]b,,,,,,,,5V31V75[8:15],,,,,,,,5>5V31V75[8:32]*>5V31V75[8:32],,,,,,,,5>5[8:16],,,,,,,,,
E
