&title=白いサクラ咲いて
&artist=山本美祢子
&first=0.378
&des=雪雪
&clock_count=4
&lv_5=13
&des_5=
&inote_5=(176)
{16},,,,
,,,,
,,,,
,,,,
{16},,,,
,,,,
,,,,
,,,,
{16}6/3>6<3[2:3],,,,
,,,,
,,,,
,,,,
{16}4,,,,
,,,,
,,,,
,,,,
{16}3/6<3>6[2:3],,,,
,,,,
,,,,
,,,,
{16}5xq3[2:1],,,,
,,,,
,,,,
,,,,
{16}6h[4:3]/4qq4[2:1],,,,
,,,,
,,,,
,,,,
{16}2h[4:3]/8qq8[2:1],,,,
,,,,
,,,,
,,,,
{16}4qq4[2:1]/8qq8[2:1],,,,
,,,,
,,,,
,,,,
{32}E5,C,E1,,,,,,
{16}2z6[4:1]/7s3[4:1],,,,
,,,,
,,,,
{16}8b/1b,,2>5[8:1],,
5,,7h[4:1],,
,,8,,
6/1,,,,
{16}7/5,,8<5[8:1],,
4,,2h[4:1],,
,,1,,
3/8,,,,
{16}2/4,,3<6[8:1],,
6,,8h[4:1],,
,,1,,
2/8,,7x-4[8:1]/3x-8[8:1],,
{16},,3x/7x,,
,,1x>4[8:1]/5x<8[8:1],,
,,5bx/1bx,,
,,,,
{16}2-6[8:1],,,,
8,,1<6[8:1],,
,,3<6[8:1],,
,,7h[4:1],,
{16},,8,,
1/6,,5/2-6[8:1],,
,,4,,
8x,,,,
{16}7h[8:1]/5h[8:1],,,,
1,,8/2-5[8:1],,
7-4[8:1],,,,
,,,,
{16}2/5,,3,,
4/7,,6,,
3x,4,3,4,
2x,5,2,5,
{16}1x>7[2:3],,,,
,,,,
,,,,
,,,,
{16}E7,,,,
,,C,,
,,,,
E3,,,,
{16}8<2[2:3],,,,
,,,,
,,,,
,,,,
{16}E3,,,,
,,C,,
,,,,
E7,,,,
{16}1pp1[4:3],,,,
,,,,
,,,,
,,,,
{16}5pp5[4:3],,,,
,,,,
,,,,
,,,,
{16}2q4q6[4:5],,,,
,,,,
,,,,
,,,,
{16},,,,
,,,,
,,,,
3x/7x,,,,
{16}4b-2[8:1],,,,
8-6[8:1],,,,
3-1[8:1],,,,
7-5[8:1],,,,
{16}2<6[4:1],,,,
6>2[4:1],,,,
2,,,,
6,,,,
{16}5-7[8:1],,,,
1-3[8:1],,,,
6-8[8:1],,,,
2-4[8:1],,,,
{16}7>3[4:1],,,,
3<7[4:1],,,,
7,,,,
3,,,,
{16}4-2[8:1],,,,
8-6[8:1],,,,
3-1[8:1],,,,
7-5[8:1],,,,
{16}2-8[8:1],,,,
7-3[8:1],,,,
5-8[8:1]*-2[8:1],,,,
,,,,
{16}1pp2[4:1],,,,
8,,7,,
6pp7[4:1],,,,
2,,3,,
{16}4qq3[4:1],,,,
6,,7,,
8<5[8:1]*>3[8:1],,,,
,,,,
{16}7/2b-4[8:1],,,,
7/2,,,,
7/5-8[8:1],,,,
7/5,,,,
{16}1/6>3[8:1],,,,
1/6,,,,
1/4<7[8:1],,,,
4/1,,,,
{16}6/2-6[8:1],,,,
2/6,,,,
3/7-3[8:1],,,,
7/3,,1x-6[8:1]*-4[8:1],,
{16},,1x,,
,,8b-3[8:1]*-5[8:1],,
,,8x,,
,,,,
{16}1-5[8:1],,,,
5,,7<4[8:1],,
,,3,,
2,,,,
{16}8>3[8:1],,,,
7,,5-1[8:1],,
,,4,,
3,,,,
{16}7<4[8:1],,,,
3,,1-5[8:1],,
,,6,,
7,,,,
{16}1b<6[8:1],,,,
3,,4-8[8:1],,
,,7,,
6,,,,
{16}2bx,,3,4,
3,,7bx,,
6,5,6,,
7b/3b,,,,
{16}5bx,,7,8,
7,,4bx,,
2,1,2,,
4b/8b,,,,
{16}7/5,,7,,
4/6,,4,,
3/5,,5,,
2/4,,2,,
{48}E3,E7,E4h[12:7]/E8h[12:7],,,,,,,,,,
{16},,,,
,,,,
2x/6x,,,,
{16}7b<4[8:1],,4>1[8:1],,
3,,2h[4:1],,
,,8w4[8:1],,
,,8qq7[4:1],,
{16},,,,
3^6[8:1],,,,
3/8-4[8:1],,,,
2/8,,,,
{16}1>4[8:1],,4<7[8:1],,
6,,8h[4:1],,
,,1-5[8:1],,
2,,3b,,
{16},,8-4b[8:1],,
7,,6b,,
,,2/5,,
3,4,2,4,
{16}1b-5[8:1],,8,,
7,,6h[2:1],,
,,,,
7,,7>5[4:1],,
{16},,5qq1[8:3],,
5,,,,
8<5[8:1],,,,
8,,,,
{16}7b-3[8:1],,,,
7/1,,,,
2-5[8:1],,6-1[8:1],,
2,,6,,
{16}4b>1[8:1],,8<5[8:1],,
4,,8b,,
,,2/7,,
1,8,1,8,
{16}2b>5[8:1],,5<8[8:1],,
6,,7h[4:1],,
,,1w5[8:1],,
,,1,,
{16},,,,
7-4[8:1],,2-5[8:1],,
7,,2,,
8,,,,
{16}6/3,,1<6[8:1]/8>3[8:1],,
7/2,,1b-5[8:1]/8b-4[8:1],,
,,8b/1b>8[16:5],,
,,Cf,,
{16},,,,
5w1[8:1],,,,
5,,,,
3,4,3,4,
{16}2b>5[8:1],,6<1[8:1],,
2,,6qq4[16:3],,
,,8x<5[8:1],,
8x,,,,
{16}2b>5[8:1],,6<1[8:1],,
2,,6q4[16:3],,
,,8x<5[8:1],,
8x,,,,
{16}1bpp1[4:1],,,,
5,,5h[4:1],,
,,2,,
3,4,3,4,
{16}2x/5x,,2,,
4/7,,7,,
1/8h[4:1],,,,
{32}5,6,7,8,1,2,3,4,
{16}5b,,8-2[8:1],,
7,,6,,
5-7[8:1],,4,,
3,,,,
{16}3b,,1-7[8:1],,
2,,3,,
4-2[8:1],,5,,
6,,,,
{16}6b,,8-2[8:1],,
7,,6,,
5-7[8:1],,4,,
3,,,,
{16}2/8,,3,,
1/7,,6,,
4/8,,3,5,
3,5,3,,
{16}2b/6b,,8>3[8:1],,
7,,6,,
5-1[8:1],,4,,
3,,,,
{16}3b,,1<6[8:1],,
2,,3,,
4-8[8:1],,5,,
6,,,,
{16}6b,,8>3[8:1],,
7,,6,,
5-1[8:1],,4,,
3,,,,
{16}2b/7bh[8:1],,6h[8:1],,
5h[8:1],,4h[8:1],,
3h[8:1],,2,,
1,8,1,8,
{16}2b-5[8:1],,6v1[8:1],,
2,,6x,,
,,3/7,,
8b<5[8:1],,4>1[8:1],,
{16}8,,4x,,
,,2/5,,
3x,4,2,5,
1x,6,8,7>6[16:61],
{16}5b>6[4:15],,,,
,,,,
,,,,
,,,,
{1}
