&title=桜樹街道
&artist=kozato snow
&first=0
&des=ゆりさきkino.
&lv_5=13.4
&des_5=ゆりさきkino.
&inote_5=
(135){4},,,,4,
3/4,5,6/5,
4,5/3,5,6/4,
4/3h[4:1],5,5/6h[4:1],4,
4/3h[4:1],7,5/6h[4:1],2,
7/1>4[4:1],{8}8,7,{4}6,6/5,
4<7[4:1],{8}3,3,2,1,{4}1/8,
{8}4,5,,8,7/1,6/2,5/3,1,
8,4,5,2,1,{16}3,4,{8}3,2,
{4}1/5b-1[4:1],4,3-7[4:1],2,
1h[4:1],{8}8,8h[8:1],5,5h[8:1],{16}3,2,1,8,
{4}7/3h[4:1],7,6/2h[4:1],6,
1/5-1[4:1],6,7-3[4:1],8,
1,2,{8}3,4,3h[4:1],2,
{4}1,{8}8h[8:3],4,3,2,{16}1,8,2,6,
{8}1,{16}2,3h[8:1],,1,2,1,{8}4,7,1/2,3,
8/4,{16}7,6h[8:1],,8,7,8,{8}5,2,8/7,6,
1/5,{16}2,3h[8:1],,5,4,6,{8}5h[8:1],7,8/4,7/3,
{4}2b/6b,4,{8}3,4,{4}2v8[2:1]*>8[2:1],
{8}2b,{16},,,,,,,,1,1,1,8,1,7,
{4}2b>5[8:1],2/6,{8}7/1v6[8:1],8,{4}1/2,
2>5[8:1],{8}2/8,7,6h[8:1]/1v6[8:1],8,1,8,
{4}1/2>5[8:1],2/1h[4:1],{8}2v5[8:1],8,{4}1/2,
5/1v6[8:1],{8}1/3,2,7h[8:1]/1>4[8:1],8,1,5,
{4}2>5[8:1],1/2,{8}1v6[8:1],8,{4}1/7,
2>5[8:1],{8}2,1,8h[8:1]/2-5[8:1],1,2,1,
{4}5h[4:1]/8p5[4:1],{8}8,1,2h[8:1],{16}5,4,{8}6,3,
2>5[12:1],1,8<5[12:1],1,2/8,{16}3,4,{8}2,1,
{4}8/7b<4[8:1],7/3,{8}2/8v3[8:1],1,{4}8/7,
7<4[8:1],{8}7/1,2,3h[8:1]/8v3[8:1],1,8,1,
{4}7<4[8:1],7/8h[4:1],{8}7v4[8:1],1,{4}8/7,
4/8v3[8:1],{8}8/6,7,2h[8:1]/8<5[8:1],1,8,4,
{4}7<4[8:1],8/7,{8}8v3[8:1],1,{4}8/2,
4/7<4[8:1],{8}7,3,4/2-5[8:1],{16}3,4,{8}2,1,
{4}8b-4[8:1],{8}8/1,2,3b-1[8:1],{16}4,5,{8}3,6,
1b-4[8:1]/5b-8[8:1],6/2,{4}1/5,{8}8,{16}2,6,{8}4w8[8:1],7/1,
{1}4b,
2q5[2:1],
{8}7qq3[8:3],,,,,2>5[4:1],,7<3[8:3],
,,,1,{2}1-5[4:1],
{4}6<1[4:1],1>4[16:3],{8},,2,{16}3,4,
{8}2,5,1,7/8h[4:1],,7,6,5,
2,{16}4,3,,,,,{8}2>5[16:3],4<7[16:3],6<1[16:3],8>3[16:3],
{1}2>2[4:3],
{4}6b,{16},,,,,,,,5/6,4,3,2,
{4}5q1[8:1]/1q5[8:1],5qq3[8:3]/1qq7[8:3],{8},,,,,,3,
3h[8:1],4,{16}5,4,{8}6,7,
{4}8p4[8:1]/4p8[8:1],8pp2[8:3]/4pp6[8:3],{8},,,,,,1,
1h[8:1],7h[8:1],{16}5,4,{8}3,3,
{4}2q6[8:1]/6q2[8:1],6q3[8:3]/2<7[8:3],{8},,,,,,2h[8:1],
6h[8:1],1h[8:1],5,8/4,2/6,
{4}7p3[4:1]/3p7[4:1],3<7[8:3]/7>3[8:3],{8},,,,8/4,
7,6,5,4/6,{16}2,1,{8}3/8,2/7,
{4}8b/6b>3[8:7],8h[8:1],,1h[8:1],
{8},,2,2h[8:1],4h[8:1],{16}6,7,{8}8,1,
{4}2<7[8:7],4h[8:1],,5h[8:1],
{8},,6,6h[8:1],4h[8:1],{16}2,3,{8}1,4,
{4}8<5[8:7],3h[8:1],,2h[8:1],
{8},,1,8,1,2,3<6[8:1],2,
{4}1h[4:1],{8}8,7,6h[8:1],{16}8,7,{8}8,7h[8:1],
4h[8:1],8h[8:1],3h[8:1],{16}1,2,{8}1,{16}4,3,5,2,6,1,
{4}7b<4[8:1],7/8,{8}2/8v3[8:1],1,{4}8/7,
7<4[8:1],{8}7/1,2,3h[8:1]/8v3[8:1],{16}1,2,{8}8,1,
{4}8/7<4[8:1],7/8h[4:1],{8}7v4[8:1],1,{4}8/7,
{8}4/8v3[8:1],5,8/6,7,2h[8:1]/8<5[8:1],{16}1,3,{8}8,4,
{4}7<4[8:1],8/7,{8}7/8v3[8:1],1,{4}8/2,
7<4[8:1],{8}7/8,1,2h[8:1]/7-4[8:1],{16}8,1,{8}7,8,
{4}4h[4:1]/1q4[4:1],{8}1,8,7h[8:1],{16}4,5,{8}3,6,
7<4[12:1],8,1>4[12:1],8,7/1,{16}6,5,{8}7,8,
{4}1/2b>5[8:1],2/6,{8}7/1v6[8:1],8,{4}1/2,
2>5[8:1],{8}2/8,7,6h[8:1]/1v6[8:1],{16}8,7,{8}1,8,
{4}2>5[8:1],2/1h[4:1],{8}2v5[8:1],8,{4}1/2,
{8}5/1v6[8:1],4,1/3,2,7h[8:1]/1>4[8:1],{16}8,6,{8}1,5,
{4}2>5[8:1],1/2,{8}2/1v6[8:1],8,{4}1/7,
5/2>5[8:1],{8}2,6,5/7-4[12:1],{16}6,5,{8}7,{16}2,3,
{4}1b-5[8:1],{8}8/1,7,6b-8[8:1],{16}5,4,{8}6,3,
8b-5[16:1]/4b-1[16:1],7/3,8/4,{16}6/2,3/7,{8}4/8,{16}7/3,2/6,{8}5/1,4/3,
5,{16}2,2h[8:1],,4,3,4,{8}2h[4:1],1,8,7,
4,{16}7,7h[8:1],,5,6,5,{8}7h[4:1],8,1,2,
8,{16}3,3h[8:1],,1,2,1,{8}3h[4:1],4,5,6,
1,{16}6,6h[8:1],,8,7,8,{8}6h[4:1],5,4,3,
5,{16}2,2h[8:1],,4,3,4,{8}2h[4:1],5,6,7,
3,{16}8,8h[8:1],,2,1,2,{8}8h[4:1],2,3,4,
7,{16}4,4h[8:1],,6,5,6,{8}4h[4:1],6,7,8,
2,{16}6,6h[8:1],,8,7,8,{8}6,{16}2,1,{8}2,8/3,
7,{16}1,1h[8:1],,5,4,6,{8}3h[4:1],1,6h[4:1],8,
2,{16}8,8h[8:1],,4,5,3,{8}6h[4:1],8,3h[4:1],1,
7,{16}4,4h[8:1],,8,1,7,{8}2h[4:1],4,7h[4:1],5,
3,{16}5,5h[8:1],,1,8,2,{8}7h[4:1],5,2h[4:1],4,
6,{16}5,5h[8:1],,7,6,7,{8}5,8/4,7/3,2/6,
1/5,{16}4,4h[8:1],,2,3,2,{8}4,1/5,6/2,7/3,
8/4,{16}3,2,,2,1,8,{8}7,3/6h[4:1],4,5,
5,{16}5,6,,3,8,2,{8}1,{16}2,3,{8}4b,4b,
E
