&title=のぼせもんHERO
&artist=チバニャン、ギガP
&first=0
&des=Mao_Yu
&des_5=Mao_Yu
&lv_5=13
&inote_5=(155){4},,,,,5<3[2:3],
,,,,,,,5bxh[4:7]/4>6[2:3],
,,,,,,,6x/4qq1[8:5],
6,7,
7,2x/5pp8[8:5],3,3,
3,{8}2,2,7,7,{16}1,8,1,8,
2,7,3,6h[16:5],{8}B1/E2/B2,B3/E4/B4,{4}B2/E2/B1,8x-4[8:1],
{8},,5x/6xh[8:1],5,4,5,4/3xh[8:1],4,
5,4,4/5x,3,4x/5<8<5[8:3],6,{4}3xh[8:1],
4x,{8}4x/3xh[8:1],4,5,4,5/6xh[8:1],5,
4,5,5/4x,6,5x/4>1>4[8:3],3,{4}6xh[8:1],
{8}5x,6,7,8h[4:1],,5,4/6,3,
8/4>8[8:3],3,6,8pp4[8:3],{4}7x,6x,
5x,{16}6,4,,,3>6[2:1],5,,,{4}3h[8:3],
{8},,,4,3/6,2-5[8:1]/7-4[8:1],,2b/7b,
,,{4}4-2[8:1],4-8[8:1],4-6[8:1],
4,{8}7/2xh[4:1],5,7xh[4:1],4>5[8:3],2xh[2:1],4,
,,,B7/E7/B6,{4}E3/B2/B3,{8}3/7,6/2,
3/7h[4:1],5,2xh[4:1],4,7xh[4:1],5>7[8:3],2xh[4:1],5,
,,{4}4-2[8:1]*-6[8:1],4,{8}1-3[8:1]/7-5[8:1],3v8[8:1]/5v8[8:1],
{4}7/1,B8/B1/B2/B3/B4/B5/B6/B7,B8/B7/B6/B5/B4/B2/B1/B3,{8}8-6[8:1]/2-4[8:1],4v1[8:1]/6v1[8:1],
2/8,{32},,,,,,,,2x/7xh[4:1],3x,{16}4x,,,{8}3,4>1[4:1]/5p8[4:1],6,
,,,6x/5x,4,3x/7x,8-6-1[4:1],6x/5-2[8:1],
{16}3,,,Cf,{1},{4},{8},B1,
B7,B2,
B6,B3,{12}5x,,5h[12:7],{24},,,{8}4x,{4}4h[2:1],
{8},5xh[4:1],,4h[8:1],5xh[8:1],4h[8:3],{4}5x-1[8:1],
{2}5<4[4:5],B5/B4,
B5/B4,5<4[4:5],
B5/B4,B5/B4,
{4}B5/B4,{16}E4/E6,B3/B6,B2/B7,E2/E8,{8}A8/A1,Cf/B7/B2,,4x/5x,
3/6,2x/7x,{4}8h[8:1]/1-5[8:1],{8}1/3-8[8:1],2,{4}6-1[8:1],
4q4qq4[2:1],7h[8:1],7h[8:1],{8}6,5,
6v1[8:1],5,3v8[8:1],4,6-8[8:1],5,2-4[8:1],3,
5p5pp5[2:1],6,{4}3h[8:1],2h[8:1],{8}1h[8:1],4,
5/2xpp5[2:1],6,{4}7xh[8:1],{8}6x,6pp1[8:3],,4,
3,2,,2>8[8:3]/7<1[8:3],4/5,2b/7b,,,,,{4}1b/2-4[8:1],
2b/1-5[8:1],1b/8-6[8:1],
{2}8b/1-3-8-4-7b[8:3],{8}Cf,,,6,
4/5,3,5/4x,6,5/6x,4,4/3x,3,
5/2x,3,4x/7-3[8:1],6-4[8:1],7x,6,1x-5[8:1],2-4[8:1],
1x,2,7x,6,5/4x,3,3/4x,5,
5/4x,6,4/5x,2,5p1[8:1]/4x>1[8:1],7,{4}5<8[8:1]/4q8[8:1],
,Cf,{8}4/5x-7-1-3[2:1],5,{4}4h[8:1],
{8}3>6[8:3],4h[8:1],,6pp1[2:1],,4h[2:1],,,,,,6/3qq8[2:1],
5,5,4,4h[4:1],
,,,5,2-6[8:1],7-3[8:1],2,7,
E3/B2/B3,B7/E7/B6,2bx,3,5/6,8/7,1b,3,
4/5,7/6,8b,2,4-6[8:1]/3-7[8:1],5,{4}4-8[8:1]/3-1[8:1],
{8},,7bx,5,3/4,2/1,8b,6,
5/4,2/3,1b,7,5>3[8:1]/6p2[8:1],4,{4}5q1[8:1]/6<8[8:1],
{8},,2bx,4,5/6,7/8,1b,3,
4/5,6/7,8b,2,3/4,5/6,,7,
3/6<8[8:1],5,6/3>1[8:1],4,3/6-1[8:1],5,6/3-8[8:1],4,
3/6,5,{12}2/6h[12:1],,7/3h[12:1],,4/8h[12:1],,{4}Cf/D8/E8/B7/B6/E6/D6/D4/E4/B3/B2/E2/D2,
,1>5[4:1],5<1[4:1],1>5[4:1],
5,7<3[4:1],3>7[4:1],7<3[4:1],
{8}Ch[8:1],,,2x,{4}5h[4:1],{8}4x,3,
6x,5,4/3x,5,4/6x,5,7xpp2[4:1],4h[4:1],
,,{4}3h[8:3],{8}5,6h[4:1],{4}4-8[8:1],
{8},,3,6h[4:1],4,3h[4:1],{4}5w1[8:1],
{8},,,6,{16},4,{8}5,6/4,3,
5/4,6,{16}4,5,,,3,6,,,2,7,,,{4}B2/B3/B6/B7/Cf/B8/B1,
{8}3>1[8:1],6,{4}6,{8}7<5[8:1],2,
{4}2,{8}3,6,{2}2v5[8:1]/8v5[8:1],
{4}B7/C/B4/B1/A1/A7/A4,{8}6<8[8:1],3,{4}3,{8}2>4[8:1],7,
{4}7,{8}6,3,{2}1v4[8:1]/7v4[8:1],
{8}C/B2/B8/B5/A5/A2/A8,6x,5x-7[8:1],4xh[8:1],,2xqq8[8:1],{4}8x>5[4:1],
{8}5xqq3<8[8:3],,,,,,,B8/B1/B2/B3/C,
,5-7-4[4:1],3,4V25[4:1],3,2,{4}1h[8:1],
{8}2,6,{12}3-6[0.5161##0.129],,7>6[0.5161##0.7742],,3,,{4}7,
,7bxh[8:55],{1},{4},{16}E4,
E5,E6,E7,
E8,E1,E2,E3,{4}3bxh[8:39],,,,,,,,,,,,,,,,,,,,1-3-8[4:1]/5-7-4[4:1],
{8}1/5,Cf,,1x/5x,
2/6,7/3,4-2[8:1],8-6[8:1],4v1[8:1],8v5[8:1],4-2[8:1],8-6[8:1],
4q6p4[2:1],8,,,C,,,4x/8x,
7/3,6/2,5-7[8:1],1-3[8:1],5v8[8:1],1v4[8:1],5-7[8:1],1-3[8:1],
5p3q5[2:1],1,,,C,,,1,
2/B5,3,4/B6,3,2/B7,1h[4:1],,8,
7/2,6,4-2-8-6-4[2:1]/5>5[2:1],3,,,,,,,{4}1-5[8:1]/8-6[8:1],
1-3[8:1]/8-4[8:1],1-5[8:1]/8-6[8:1],
8/1>6[8:3],{8}6,7,8,1<3[8:3],,3,
2,1,{4}8bh[3:2],{12}7x,6x,5x,4xh[12:7],,,8,
1,2,3h[12:7],,4,5,6,7,8xh[6:1],,2h[12:1],
{6}7h[12:1],{12}1h[4:1],6bh[2:1],,,1,2,3,4h[6:1],,,6,
4,4,5,3,3,4,2,2,6h[6:1],,3,
{6}7h[12:1],{12}4,8b<4[4:1],,,{4}4V68[4:1],8-2-4[4:1],
4>8[4:1],8<4[4:1],{2}4pp8[8:3],
{4},2h[4:3]/6h[4:3],,,C,
{8}3,7,1-5[8:1],8-4[8:1],1-3[8:1],8-6[8:1],
1,8,2x-4[8:1],4-1[8:1],5/2,6,7x-5[8:1],5-8[8:1],
7/4,3,2x-5[8:1],5-1[8:1],2/6,7,{4}B6/B5/B4/B3,
B7/B8/B1/B2,{8}7x-1[8:1],1-6[8:1],7/2,3,2x-8[8:1],8-3[8:1],
2/7,5,6x-1[8:1],1-5[8:1],3/6,2,{4}B1/B2/B3/B4,
B8/B7/B6/B5,{8}2xv8[8:1],8q4[8:1],6,6,5xv3[8:1],3q7[8:1],
2,2,4xv6[8:1],6p2[8:1],7,7,,7,
6/4-8[8:1],3,5-2[8:1],6,1-7[8:1],3x,4v1[8:1],3,
5v8[8:1],6,{12}3-1[0.2581##0.2258],,3-5[0.2581##0.1613],,3w7[0.2581##0.1936],,3b,Cf/B8/B7/B6/B5/B4/B3/B2/B1,{24},,,,,,,,{8}B1,
B2,B7,B6,B2,B3,
B6,B5,E2,B2,B8,B7,B2,B3,
B7,B6,{4}Ch[4:7],B8,B7,
B6,B5,B4,B3,
{8}B2,6xh[8:9],{4}4,3,2,
{8}1>3-8[4:1],,,,,5,3,6,
4-2-5[4:1],7h[8:3],,,,6<1[8:1],5,4,
3,7,5/4,3,5/4,6,5/4,2,
5/4,Cf/E8/B7/B6/E6/E2/B2/B3/E4,{1}
