&title=* Crow Solace *
&artist=m108
&first=0
&des=* Kurene Saka *
&lv_5=14+
&inote_5=(188)
{1},,,,,
{32}3,4,{16}5,{8},{4},6,,
{4}7,,1h[32:1],,
{32}6,5,{16}4,{8},{4},2,,
{4}3,,{8}8,3,6,{16}1,{32}2,3,
{4}4,4h[2:1],,5,
{4}5,6,7,8,
{4}6,1,2,3,
{4}2,3,{8}4,5h[8:1],6h[8:1],7h[8:1],
{4}8>3[4:1],7,7,{8}5,6,
{8}5>2[4:1],6,5,,7,,8,,
{4}1<6[4:1],2,2,{8}4,3,
{8}4-7[8:1],,2,1-4[8:1],,7,6-1[8:1],,
{8}4,3,2,,3,2,81,,
{8}3,2,81,7h[4:1],,2,81,,
{8}36,,18,7h[4:1],,2,18,7,
{8}56,,,34,,,18,,
{1}2>8[4:2]/7<1[4:2],
{8}2-6[8:1]/7,3,7V51[4:1]/2,8,{16}72,3,4,,{4},
{8}7-3[8:1]/2,6,2V48[4:1]/7,1,{16}27,6,5,,{4},
{16}1-5[8:1]/8,2,3,,1/8-4[8:1],7,6,,18,2,3,,{4},
{8}26,1>4[8:1]/5<8[8:1],,1-6[8:1]/5-2[8:1],,15,,37,
{16}1b/5b,2,3,4,1,8,7,6,{8}1-5[8:1],2-4[8:1],1,2,
{16}8,7,6,5,8,1,2,3,{8}8-4[8:1],7-5[8:1],8,7,
{16}1,2,3h[8:1],,8,7,6h[8:1],,2,3,4h[8:1],,7,6,5h[8:1],,
{16}2,4,3h[8:1],,7,5,6h[8:1],,3,5,4,6,8b,,,,
{16}5,4,6,3,7,2,8,1,7,6,5,4,8,1,2,3,
{16}6,5,7,4,8,3,1,2,8,7,6,5,42,,42,,
{16}3,4,2,5,1,6,8,7,1,2,3,4,1,8,7,6,
{16}4,5,3,6,2,7,1,8,2,3,4,5,1,8,7,6,
{16}3,4,3,4,2,5,3,4,2,5,2,5,1,6,2,5,
{16}1,6,1,6,8,7,1,6,8,7,8,7,1,2,3,4,
{16}6,5,6,5,7,4,6,5,7,4,7,4,8,3,7,4,
{16}8,3,8,3,1,2,8,3,1,2,1,2,8,7,6,5,
{32}1,2,3,4,5,6,7,8,1,2,3,4,{16}7/5h[8:1],,6,4,6,4,7,3,7,3,
{32}8,7,6,5,4,3,2,1,8,7,6,5,{16}2/4h[8:1],,3,5,3,5,2,6,2,6,
{16}1,1,,28,,,8/2h[8:1],,{32}1-5[8:1],8,7,6,1,2,3,4,{8}1,3,
{12}4,3,2,18,7,6,35,2,1,78,6,5,
{16}3,4,2,4,{8}3-7[8:1],2,1-5[8:1],1,8,7,
{16}6,5,7,5,{8}6-2[8:1],7,8-4[8:1],8,1,2,
{8}3,3>4[8:9],,3b/5h[8:5],,,,,
{4},4<3[4:1],,,
{32}51,8,7,6,5,4,3,2,18,7,6,5,{16}4/2h[8:1],,5,1,5,1,7,3,7,3,
{32}8,1,2,3,4,5,6,7,81,2,3,4,{16}5/7h[8:1],,4,8,4,8,2,6,2,6,
{16}1,8,2,7,3,6,4,5,2,1,3,8,4,7,5,6,
{16}3,4,2,5,1,6,8,7,{32}8,1,2,3,8,7,6,5,1,2,3,4,1,8,7,6,
{16}3,4,5,6,3,4,5,6,3,4,5,6,3,4,5,6,
{16}2,1,8,7,2,1,8,7,2,1,8,7,2,1,8,7,
{16}3,4,3,4,2,5,2,5,1,6,1,6,8,7,8,7,
{16}1,2,3,4,8,7,6,5,{32}1,2,3,4,5,6,7,8,1,2,3,4,5,6,7,8,
{8}5b/1h[4:1],,5,2h[4:1],5,,5/3,,
{8}5/2-6[8:1],,5,,5/7-3[8:1],,5,,
{8}4/8h[4:1],,4,7h[4:1],4,,4/6,,
{8}4/7-3[8:1],,4,,4/2-6[8:1],,4,3,
{8}3h[8:1],4h[8:1],3h[8:1],4h[8:1],1h[8:1],8h[8:1],2h[8:1],7h[8:1],
{8}5h[8:1],6h[8:1],5h[8:1],6h[8:1],1h[8:1],8h[8:1],2h[8:1],7h[8:1],
{8}3h[8:3],,,4h[4:2],,8h[4:1],,,
{16}48,15,26,37,48,,4b>1[8:1]/8b<5[8:1],,,,4b-8[8:1]/8b,,,,4/2,,
{16}1b,2,3,4,{8}7/5h[4:1],,6h[8:1],8h[8:1],1h[8:1],3h[8:1],
{16}8,7,6,1,2,3,7,6,5,43,2,1,8,7,6,5,
{16}48,7,6,5,{8}2/4h[4:1],,3h[8:1],1h[8:1],8h[8:1],6h[8:1],
{16}8,1,2,3,45,6,7,8,12,3,4,5,1,2,3,4,
{8}5/1h[8:1],6h[8:1],2h[8:1],7h[8:1],{16}3,4,6,5,2,3,7,6,
{16}1,2,3,4,8,7,6,5,1,8,7,6,15,48,37,26,
{16}1b/5,,2,,3,,4/8b,,7,,6,,1b/5,,2,,
{16}3/7b,,4,5,3,,6/2b,,5,4,6,,3-8[8:1]/7b-4[8:1],,48,,
{1}7bq8[2:15]/3bq4[2:15],,,,,,,,
{2}1-5[2:1],2-6[2:1],
{2}3-7[2:1],4-8[2:1],
{2}5-1[2:1],6-2[2:1],
{2}7-3[2:1],8-4[2:1],
{1}2z6[1:1],
{1}4z8[1:1],
{1}6z2[1:1],
{1}8w4[1:1],
{2},{4},{8},{16}5,5,
{16}4b,3,2,1,4,5,6,7,81,2,3,4,8,7,6,5,
{16}4,3,2,1,4,3,2,1,5,6,7,8,5,6,7,8,
{16}51,62,73,84,1,2,3,4,51,62,73,84,5,6,7,8,
{16}1,2,3,4,1,2,3,4,8,7,6,5,8,7,6,5,
{24}1,8,7,6,5,4,{16}31,8,7,6,45,3,2,1,8,7,6,5,
{24}8,1,2,3,4,5,{16}68,1,2,3,54,6,7,8,1,2,3,4,
{12}15,2,3,84,7,6,15,2,3,84,7,6,
{32}1,2,3,4,8,7,6,5,2,3,4,5,7,6,5,4,1,2,3,4,5,6,7,8,15,4,3,2,1,8,7,6,
{8}1b-3[8:1]/5h[4:1],,1-5[8:1],6h[4:1],1-3[8:1],,1-5[8:1]/7,,
{8}1-3[8:1]/7-3[8:1],,1-5[8:1]/7,,1-3[8:1]/4-8[8:1],,14,,
{8}8-6[8:1]/4h[4:1],,8-4[8:1],3h[4:1],8-6[8:1],,8-4[8:1]/2,,
{8}8-6[8:1]/2-6[8:1],,8-4[8:1]/2,,8w4[8:1]/5,,8b,,
{16}2,1,3,8,2,1,3,8,4,5,4,5,3,6,3,6,
{16}8,7,1,6,8,7,1,6,4,5,4,5,3,6,3,6,
{8}1>4[8:1],8,7,6<1[8:1],5,4,3<6[8:1],2,
{8}1-5[8:1],2-4[8:1],1,2,7-4[8:1],1-5[8:1],7,1,
{16}8b,7,6,5,{8}2/4h[4:1],2,3h[8:1],1h[8:1],8h[8:1],6h[8:1],
{16}1,2,3,8,7,6,2,3,4,56,7,8,1,2,3,4,
{16}51,2,3,4,{8}7/5h[4:1],7,6h[8:1],8h[8:1],1h[8:1],3h[8:1],
{16}1,8,7,6,54,3,2,1,87,6,5,4,8,7,6,5,
{8}4b/8h[8:1],3h[8:1],7h[8:1],2h[8:1],{16}6,5,3,4,7,6,2,3,
{16}8,7,6,5,1,2,3,4,8,1,2,3,48,51,62,73,
{16}4b/8,,3-8[8:1],,2,,3/5b,,6-1[8:1],,7,,4b/6,,3,,
{16}2b-5[8:1],1,3,8,2,,7b-4[8:1],8,6,1,7,,{12}1bw5[8:1],6,4,
{1}1b,
