&title=櫻ノ詩
&artist=はな
&first=-0.03
&des=TeKraX
&lv_5=自制
&inote_5=(180){1},{8}
2/7,,3,4,5,6,2q3[2:1]/7h[4:1],,,,7,,6,,5,,
4h[4:1]/3h[4:1],,,2h[4:1]/5h[4:1],,,6h[4:1]/1^4[2:1],,,,6,,7,,8h[4:1],,
1,2,3,8,7,6,4/5h[8:3],,,6,7,8,1,2,3/7,,
4h[4:1]/6h[4:1],,,1h[4:1]/8h[4:1],,,2/7,2/7,1/8,2,1/7,6,3/5,{16}3,4,3,4,3,4,
{8}2b,2,1/8,7,5/6,5/6,4/7-4[8:1],,3-8[8:1]/7,,3/7-2[8:1],,3-6[8:1]/7,,3/7,,
3/7,4,5,2/6,1,8,2-6[8:1]/7,,7^4[8:1]/2,,1-6[8:1]/7,,1/5-1[8:1],,2/5,,
4/8,3,2,1^4[8:1]/8,7,6,5h[8:3],,,4h[8:1],3h[8:1],2h[8:1],1h[8:1],8h[8:1],
7,7,2-5[8:1],6,2,8v3[8:1],4,8,1-6[8:1],5,1,,4h[8:1]/5h[8:1],,
{16}4,3,2,1,8>7[4:3],7,6,5,4/8b,,,,,,,,,,,,,,,,
{8}
4/5,,4,6,4,,4/7,,4,,4/8^5[4:1],,4h[4:1],,,,
4/3,,4,2,4,,4/1,,4,,4/8^3[4:1],,4h[4:1]/8,,,,
4/6,,4,7,4,,4/8h[4:1],,4,,4/8,8,4,,4/7,,
3/7h[8:1],,3/6h[8:1],,3/5h[8:1],,3/4h[8:1],,4h[8:1]/3,,4h[8:1]/2,,4h[8:1]/1,,1h[4:1]/4,,
8,,8,2,8,,8/3,,8,,8/4^1[4:1],,8h[4:1],,,,
8/7,,8,6,8,,8/5,,8,,8/4^7[4:1],,8h[4:1]/4,,,,
8h[4:3],1,2,3h[4:1],,,3,,8h[8:5],7,6,5h[4:1],,,
5^8[8:1]/8^3[8:1],,5/8,,1-6[8:1]/4-1[8:1],,1/4,,2/7,,2,4,5,7,4/5,3/6,{16}2,7,2,7,
{8}
1,1^4[8:1],3,1,,,8,8^5[8:1],6,8,,,3,2/4,6,5/7,
2-5[8:1],2,7-3[8:1],7,4-8[8:1],4,6-1[8:1],6,,2,3,4,5,4,
3/5h[4:1],,3,3,5,3^8[4:1]/5,,8^5[4:1],,5>8[8:3],,,,,
5h[4:1],,8,1,2-5[8:1]/6-1[8:1],,2/6,,3-8[8:1]/7-4[8:1],,3/7,,
1/5,3,4/8,6,{16}2,4,3,7,5,6,3,,
{8}2/4,2-6[8:1],2,2/1,,,7/5,7-3[8:1],7,7/8,,,2/4,2,1/3,3,
4-8[8:1]/8,4,7p3[8:1],7,2^5[8:1],2,6v1[8:1],6,,2,3,4,5,4,
3/6,7,1-4[8:1],7-4[8:1],1,7,,3,2,7,2^5[8:1],8^5[8:1],2,8,,1,2/8,3/7,
5/6h[4:1],,1,3h[4:1]/4,,8,5/6,4,5/6,7,1/8,2,{16}3,4,3,4,3,4,3,4,1b-5[8:1],,,,
{8}
7^4[8:1]/1,8,7/2-6[8:1],,2/5-1[8:1],,5/3-8[8:1],,7v4[8:1]/3,,7/1^6[8:1],,
1/5-1[8:1]*-8[8:1],,5>6[4:3],,,2b,,,,,,,1V73[8:3]/7,,6-4[8:1],,6,,
5-1[8:1],2-6[8:1],5,2,,8/4,8h[8:1]/4h[8:1],,4-8[8:1],7-3[8:1],4,7,,
1,1q5[4:1],,5q1[4:1],,1V35[4:1],,5V71[4:1],,1>5[4:1],,5<1[4:1],,1w5[4:1],,,,,,
3/4,3/4,2/4,2/4q8[8:1],,2v5[8:1]/4,,1h[4:1]/2,,,1-6[8:1],,1/4-8[8:1]*-7[8:1],,4,,
1/6,6,3/5,3/5h[4:1],,7-3[8:1],,7,,1,1h[8:3],,,,2/8h[4:1],,
2,2^5[8:1],2,2/6v1[8:1],,4-7[8:1]/6,,4/8^5[8:1],,8p4[4:1]*pp2[4:1],,,,,,,
2/4,2/4-7[8:1],2/4,2-6[8:1]/4,,2/8-3[8:1],,8/5h[8:3],,,2-6[8:1],,4-8[8:1]/2,,7h[4:1],,
1,1-5[8:1],1,1/6q2[8:1],,4^1[8:1]/6,,4/8v3[8:1],,8^5[4:1]*p4[4:1],,,,,,,
2/8,2v5[8:1]/8-6[8:1],2/8,2/8-4[8:1],,1w5[8:1]/8,,1b,,,3/7,3/7,4/6,{16}5,5,5,,4/6,,
{8}
7-4[8:1],3,7,1-6[8:1],5,1,4-8[8:1],3,4,2-5[8:1],1,2,7-4[8:1],8,7,3-8[8:1],5,3,
6-2[8:1],4,6,3,3,1/2,1/2,8,7/4,3,2/5,1/7,3/4,8b,E
