&title=babel
&artist=iyowa
&first=-0.05999999
&lv_6=13+
&des_6=kaminski
&inote_6=
(226){4},,{2}3h[4:1]/6h[4:1],
7h[4:1]/2h[4:1],{4}7-4[8:1],7,
2-6[8:1],2,{8}4h[4:1],,,7,
{2}4h[4:1],{8}6h[4:1],,,4h[8:3]/3h[8:3],
,,,,{4}5,{8}5,4,
{4}4,6,4,{8}6,8v5[8:1],
,,{4}3,{8}6,4,6,4,
6,4,5,4,5,6,7,8xh[4:1],
,,,,5,6,{4}7,
{8}4,4,6,6,{2}2-5[8:1]*-4[8:1],
2-8[8:1]*-7[8:1],{8}6,5,{4}6,
5h[8:1]/6h[8:1],3h[8:1],{2}6V42[8:1]*-2[8:1],
5-1[8:1],{4}8V24[4:1],4V68[4:1],
8V24[4:1],4-8[4:1],8-4[4:1],3,
3,5,6-2[8:1],6-4[8:1],
{8}6,7h[4:1],,,{4}1<6[8:1]*>4[8:1],1w5[8:1],
{2}1b,{4}7h[8:1],7,
{8}4,3,2v5[8:1],5v7[8:1],6,6,{4}6,
{8}8-5[8:1],8,{4}8,{8}4,3,{4}2,
{2}2h[4:1]/7h[4:1],7v4[8:1]/2v5[8:1],
{4}6-1[8:1]/3-8[8:1],,,4,
{8}5,6,6,7,{4}7b,7b,
{8}8,8,1,1,{2}2h[4:1],
{4}3-6[8:1],3h[4:1],,4,
{2}5b,{4}B7,B3,
{2}Ch[4:1],{4}B7,{8}C,B4,
{2}5h[4:1],{4}5-2[4:1],5,
B7,C,5-8[4:1],B7,
B3,1V75[4:1],B2,C,
B7,B5,C/B1,B3/B4,
B6/C,4,5,6h[8:1]/7h[4:1],
,4x,{8}4xh[8:1],,,5xh[8:1],
,,,,B7,C,B3,B1,
{4}8v3[8:1],8v5[8:1],{2}8h[4:1],
{4}8,2,1-4[8:1],1-6[8:1],
1-5[8:1],1-3[8:1],1-7[8:1],1w5[8:1],
{2}1,{8}4/8V63[4:13],8,8,5,
{4}5,5,4,4,
{2}2h[8:1],{4}8,{8}7,7,
{4}7,6,{8}5,5h[8:1],,5h[8:1],
,7b,,,{2}4xqq5[8:17]/6xpp5[8:29],
{1},,,{4},,,{8}3,
4,
3,6,5,6,3,4,5,6,
7/3,8,1,2,3,7/4xh[8:11],,,,,,,,,,,{4}5x,
{8}4z8[1:1],5,{2}6xh[8:33],
,,{1}Ch[1:1],
{2},2v5[8:7],
{8},,,,,,,6,
,5h[8:1],,,{4}5,{8}4,4,
3,3,,4,,5h[8:1],,6,
{4}5,{8}4,3,2,1b/8b,,1bs5b[8:1]/8bz4b[8:1],
,1b/8b,,,,,7-3[8:1],5,
{4}7,{8}1,2,3,4,2/6-8[8:1],4,
{4}6,{8}7/2-4[8:1],5,{4}2,{8}6,6,
{4}6,{8}5,4,3,2,1-5[8:1],8/2,
{4}1,{8}8-4[8:1],2,{2}4/8,
{4}3h[8:1],{8}4,4,{2}6h[4:1],
{4}5b,3h[8:1]/5h[4:1],,3,
4b,{8}5,3,7,2,{4}1b-3[8:1]/8b-4[8:1],
1/8-6[8:1],8bh,,1-4[8:1],
6/1,7h[8:1],8h[8:1],7-5[8:1]*-3[8:1],
,1-3[8:1]*-5[8:1],,7h[4:1]/4h[4:1],
,4h[8:1],3h[8:1],{8}2-5[8:1],6,
{4}2,{8}8-4[8:1],4-8[8:1],{2}8,
{4}3b,{8}5b,1b,5b,7bh,{4}3b,
5b,{8}4,4,5,5,{4}6>2[8:1],
6,7p3[8:1],7,8b-4[8:1],
1b-5[8:1],2b-6[8:1],{2}2h[4:1],
{8}3h,6h,3h,{16}6h,5,,,,,{8}2/4,3,
{16}4x,5x,6x,7x,{8}8x,1,2,3/6h[8:3],{4}4,
,5h[4:1],,2,
{8}4,5,6,{16}5,4,,,{8}1h[2:1],,,,,,C`3,
,3,,C`4,
,4,{16},,5,7,5,7,{8}5,,6,
{16},,5/4h[8:5],6,7,8,,2,{4}3,C,
{8},,,5,5h[8:5],{16}6,7,8,1,,3,
{8}4,,,1,2h[16:1],3,4,3h[16:1],
4,5,4h[16:1],5,6,5h[16:1],6,5,
4,3,2h[2:1],5h,4h,,,2,
,3,{16},,3h,7h,3h,6h,3h,5h,{8}3,2,
1h[8:3],5x,,,,7p5[2:1]/4p5[2:1],,,,,,,,C`1h[8:1],
{16},,,,,,1,
2,3,4,{8}5/1x,,3h[8:1],{4}C,
6h[8:1]`4h[16:1],5h[8:1]`3h[8:1],{8},7p4[2:9],5,3,
{1},,,,{8},3p8[4:7],
,,,,,,,,,B7,
,B5,,6-4>2[4:5],
,,,,,,,,,4v7[4:3],
,,,1h[8:1],,1-5-3[1:1],
,1,,,,,,2-6[1:1],
,,,,,,,5v3[1:1],
,5,,,,,,1-7<5[1:1],
,,,,,,,4-8-6[1:1],
,4,,,,,,4>8[1:1],
,,,,,,,,,,,,3h[8:1]/6h[8:1],
,,5bx/4bx,
,4bxz8b[8:1]/5bxs1b[8:1],,4bx/5bx,,,,2/4,
6,6,{16},,2x,3x,4x,5x,6x,7x,8x,1,{8}2-6[8:1],
6x,2,,2-5[8:1],6x,2,,7b,
,1b,{16},,1x,2,3,4,1x,2,3,4,{8}5x/1V75[8:1]*p4[8:1],
,,,1<8-6[8:1]*>2-4[8:1],,,,,,8,
2x,7,3x,6,4x,5,
{4}3b/6b,4b/5b,{8}3,6,2,7,
{4}8xs4[8:1]/1xz5[8:1],1b/8b,{8}3/6,4,2/7,6,
{4}1b/8b,8b>1-4[8:1]/1b<8-5[8:1],{16}1b/8b,Cf,,,,,,,{8}7/5,
3,{4}3,{16}7x,6x,5x,4x,3x,2x,1x/8x,7,
{8}6-4[8:1],3,{4}6,{8}8-5[8:1],4,{4}8,
4b,8b,{16}8x,7,6,5,8x,7,6,5,
{2}4x/8V24[8:1]*-3[8:1],8-3[8:1]*<4[8:1],
{8},4bh[4:1]/5bh[4:1],,,,3h,5,7,
3bxh,5,2bxh,8h,6,4h,8,2h,
{4}6bx,2bx,{8}5,4,3,2,
{4}7/1-3[8:1],1/4-8[8:1],{2}4b/7b-5[8:1],
{4}4-8[8:1],4/6,1-4-6[4:1],6v3[4:1],
{2}7h[4:1],{4}8/1,2/7,
{8}5/6,5/4,{4}3/4,5h[8:1]/2h[8:1],{8}8,6,
7-4[8:1],5,{4}7,{8}1,1x,{4}1,
{8}5-7[8:1],7v4[8:1],{4}4-6-8-2[4:1],{8}3,3,3,3,
4x-2[8:1],2-5[8:1],{4}5v8[4:1],{8}7x,7,{4}7,
{8}3,3,{4}3,{8}4,5,6,7,
{4}1b-5[8:1],2b-6[8:1],3b-7[8:1],4b-8[8:1],
{1}5bqq5-8b[2:3],
{8},,,,,,,,,1-4[2:3]*-6[4:3],
,,,,,,,,,,,C,
C,C,
,6-2[2:3]/2<3[2:3],,,,,,,,,,,,,,,,8-5[2:3],
,,,,,,,2bx,
,4bx,,6bx,
E
