&title=Calc.
&artist=ジミーサムP / 初音ミク
&first=0
&des=DtrIsta3int with exit code 0x13525e3.
&lv_5=13+
&inote_5=(173)
{1},,,,,,
{4},,
8<5[2:1],1,2,3,
4>1[2:1],5,6,7,
8-4<7[2:1],1,2,3,
4-8>3[2:1],5,6,7,
8x-6-4[2:1]/4x,3,2,1,
8x-2-4[2:1]/4x,5,6,7,
8xz4[2:1]/4x,3,2,1,
{16}
5,,2,4,3,,8,5,6<1[8:1]*>3[8:1],,,,6b,,,,
5x-1[8:1]/1x,,2,,3/5,,4,,7<4[8:1],,3,,2h[4:1]/7b,,,,
1-4[8:1],,8,,1/7,,6,,5-2[8:1]*-1[8:1],,4,,5b,,,,
8x-4[8:1]/4x,,3,,2/8,,1,,6<1[8:1],,2,,6b/3h[4:1],,,,
4-1[8:1],,5,,4/6,,7,,8v3[8:1]*v5[8:1],,2,,8b,,,,
2x-5[8:1]/4x,,5,,2/6,,7,,8-3[8:1]*-5[8:1],,3,,8b,,,,
7x<4[8:1]/3x,,4,,7/3,,2,,1-4[8:1]/8-5[8:1],,7/2,,1b/8b,,,,
3x-8[8:1]/6x,,5,,3/4,,5,,6-1[8:1]*-2[8:1],,1,,6b,,,,
3x/8x,,2,,1/7,,6,,5h[2:1],,4,,3,,2,,
1-4[8:1],,,,6,,7>2[8:1],,,,5-1[8:1],,,,6,,,,7pp6[8:3],,8,,1h[4:1],,,,,,
2,,3,,5-1[8:1]/4,,6,,5,,3,,2<7[8:1],,7,,2,,,,6,,5-8[8:1]/8-3[8:1],,,,5/8,,,,,,
7-4[8:1],,2,,7/3-8[8:1],,2,,3/6,,7,,2-5[8:1],,5>8[4:1],,2,,6,,,,5-8[8:1],,1x,,5,,,,,,
2-4-8[4:1],,,,7-3[8:1],,6,,7,,1,,4,,5qq2[2:1],,6,,7h[2:1],,,,,,,,,,,,
1,,2,,3,,4-1[8:1]/8,,,,4,,7,,6-4[8:1],,2,,6/1,,8pp4[2:1],,,,4,,5,,6,,,,,,
7>2[8:1],,,,7/2,,3h[4:1],,4,,5-8[8:1],,2,,5/1-4[8:1],,2,,1,,8,,7-4[8:1]*-3[8:1],,,,7,,,,,,
5,,6,,7-1[8:1]/3,,,,7/2-6[8:1],,3,,2-4-8[4:1],,8,,2,,7-5-3[4:1],,,,,,8,,1h[4:1],,,,
4,,2/5,,3/6,,4/7-4[8:1],,,,3-8[8:1]/7,,,,5-7[8:1]/3,,,,1pp1[4:1]/5,,,,1b/B6f,,,,,,,,
,,E1,E2,E3/6,,,,
7-5[8:1]*-3[8:1],,,,7x>2[8:1],,,,4-1[8:1],,3,,4/5-7[8:1],,,,5/1x,,,,2-4[8:1],,,,7/2<7[8:1],,6,,5,,,,4-8[8:1]/8x,,,,2-5[8:1]/4x,,,,7pp7[4:1]*qq7[4:1]/2x,,,,7b,,,,A7f,,,,
1-6[8:1]/6,,,,1-4[8:1]/4,,,,1/5,,,,7-3[8:1]*>2[8:1],,,,7x<4[8:1],,,,7/2-5[8:1],,1,,2/8-6[8:1],,,,8-2[8:1]/3,,,,8/4,,,,5v2[8:1],,6,,5/7,,,,
8<5[8:1],,,,4,,3-8[8:1],,,,6pp6[4:1]*pp6[4:1],,,,6b,,3,,
2,,1x/5x,,6,,7,,8h[8:1]/3,,2,7,1,6,8bv3[8:1]*-4[8:1],,,,
8>5[16:3],,,,8/6-1[8:1],,7,,6-3[8:1],,,,6/2,,,,1-4[8:1],,,,1/7-5-3[16:3],,8,,7,,,,2-5[8:1]/8-5[8:1],,,,2/8,,,,4v1[8:1]/6v1[8:1],,,,4/6,,,,8,,,,1-6[8:1]*-4[8:1],,,,1,,,,5x,6x/4x,7x/3x,2x/8x,1w5x[8:1],,,,1bx,,,,
3-5[8:1]/7-3[8:1],,2,,3x/7x>2[8:1],,,,7/4-6-2[16:3],,,,1,,8-4[8:1],,,,8,,3,,2,,1/6x-3[8:1],,5,,6/2x-7[8:1],,1,,2/6x>3[8:1],,5,,6/2xqq5[2:1],,1,,2b/4b,,,,5,,,,6h[8:3],,,,
7x,8,1,2,3/5-8[8:1],,4x,,5,,2pp5[8:3],,7,,2,,8,,7,,6-1[8:1],,3,,2-5[8:1],,3,,2/8,,,,7v4[8:1],,6,,7/4,,,,3v8[8:1],,2,,3/4,,,,5<8[8:1],,6,,5/4,,,,3,,6/2,,7v4[8:1]/1v4[8:1],,,,7b/1b,,,,
3>8[8:1],,4,,5,,6-3[8:1],,8,,1pp5[2:1],,2,,1,,,,,,6-1[8:1],,7,,6,,4,,3h[4:1],,,,
{12}8x,4h,6,1xh,5,3h,7x,4h,8,2xh,5,1h,6x,6,2h,8x,8,4h,
{16}
7,,,,6,,,,3-6[4:1],,,,,,,,7-2[4:1],,,,,,,,4qq1[4:3],,4,,4,,,,5h[4:1],,,,,,,,
6-2[4:1],,,,2-8-5[2:1],,,,B3,,,,B4,,,,,,,,
4,,,,3,,,,2,,,,1s5[4:3],,,,,,,,7h[4:1],,,,,,,,6,,,,7-5-8[8:3]/2-4-1[8:3],,,,,,,,,,,,
7>3v5[4:3],,,,,,3,,,,,,4h[4:1],,,,,,,,
3,,,,2,,,,1,,5,,2x<7[2:1]/6xq3[2:1],,,,,,,,,,,,,,,,E8/E2,,,,B6/B5/B4/B3,,,,8qq8[8:4],,,,,,,,1,,,,2,,,,3-7[8:3]/4-8[8:3],,,,3/4,,,,,,,,,,,,
8,,,,1qq1[2:1]*pp1[2:1],,,,1,,,,,,,,A1,,,,,,,,2,,,,3h[4:1],,,,5,,,,6,,,,7x/4x,,8,,1/5,,2,,3/6,,4,,5/7,,4,,3b-7[8:1]/6b-2[8:1],,3b/6b,,,,,,,,,,,,,,
1>5[8:1]*q5[8:1],,,,1-6[8:1],,,,4x/1x,,,,7-5[8:1]/3-1[8:1],,,,7q3[8:1]/3q7[8:1],,,,C,,,,4-1[8:1],,,,5-7[8:1]/4,,,,5/8>4[4:1],,,,4<8[4:1],,,,C,,,,5qq5[4:1]*pp5[4:1],,5,,5b,,,,A5f,,,,
1w5[8:1],,,,1,,,,3x-8[8:1]/7x<4[8:1],,,,3-6[8:1]/7,,,,3/1x-4[8:1],,8,,1/7-5[8:1],,,,7-1[8:1]/2,,,,7/3,,,,4-1[8:1]*-7[8:1],,5/3,,4b,,,,
2-4[8:1]/6,,1,,2/7-2[8:1],,6,,7/4x>8[16:3],,5,,4,,6,,5,,3,4,2,,8,,3x/7x,,4x/6x,,5x,4x/6x,3x/7x,2x/8x,1xw5[8:1],,,,1b,,,,
3-1-7[16:3]/7-5[8:1],,4,,3x/7x-3[8:1],,,,5-1[8:1],,,,5x/2x,,,,3/8,,4,7,5,6,4,,3-5[8:1]/7-3[8:1],,,,3bx-1-7-5[4:1]/7bx,,,,4x-1[8:1],,,,4,,6h[8:1],,2,,4,3,7,,4,5,3xh[8:1]/7xh[8:1],,,,3x/7x,2x/6x,1x/5x,8x/4x,3x-6[8:1]/7x-2[8:1],,,,3b/7b,,,,
3-1-7[16:3]/7<4[8:1],,4/6,,3x/7x-3[8:1],,,,5w1[8:1],,,,5,,,,7-4[8:1],,8,,7/1,,2,,3x-8[8:1],,4,,3x/7x<4[8:1],,6,,7x/2x,,3,,2x<7x-3-5[2:1],,,,6hx[4:1]/2b,,,,,,,,,,,,8xqq8[4:1]/3hx[2:1],,,,,,,,,,,,,,E1,E2,E3/7,,,,
6/4-1[8:1],,3,,4/7-5[8:1],,8,,7/2-5[8:1]*-6[8:1],,1,,2b,,,,
4/7-2[8:1],,8,,7/3<6[8:1],,4,,3/1v4[8:1]*v6[8:1],,8,,1b,,,,
3-6[8:1]/7,,2,,3/8-5[8:1],,1,,8/2-4[8:1]*-6[8:1],,3,,2b-8[8:1],,,,
2b/7<4[8:1],,,,7b/1-6[8:1],,,,1b/4w8[8:1],,,,4b,,,,
1bx-3[8:1]/5,,4,,5/1b-7[8:1],,6,,1b-3[8:1]/5,,4,,5/1b,,7,,8bx-6>5[8:1]/4,,3,,2/8b-2>3[8:1],,3,,4/8b-6>5[8:1],,5,,4/8b,,3,,
2b/4,,,5b/7,,,3b/1,,,6/8b,,,5bh[8:1]/4bh[8:1],,,,3b-6[8:1],,3,,3/7b-4[8:1],,7,,7/1b-5[8:1],,1b,,1b/7b,,8bh[2:1],,,,,,,,,,
{32}1x/7x,2x/6x,3x/5x,4x-2-8-6-4-6-8-2-4b[2:9],,,,
{2},,,,,,,,
{32},,,,,,,,5-1[8:1],
