&title=开不尽的雪莲华
&artist=Tokini11
&first=0
&des=灵魂之莲花,盛开在雪原之上
&lv_5=13+
&inote_5=(138){4},,,,,,,,
{16}5b/6b,,3,4,3,,2,,6-1[8:1]/1,,,,4,,,,
{8}3,2-5[8:1]/5,,6-1[8:1],,3,2-5[8:1],,
6,7,8/3,2,5/1,6,7/2^5[8:1],,
1^6[8:1],,5^2[8:1],,6^1[8:1],,2,,
{16}3/4,,2,5,1,,6,,3-7[8:1]/7,,,,6,,,,
3/4,,2,5,1,,6,,7-3[8:1]/3,,,,4,,,,
3/4,,2,5,1,,6,,3/7,,2,,1-5[8:1]/5,,,,
{4}7-3[8:1],2^5[8:1],6^1[8:1],3,
{16}4b,5,4,5,3,,2,,6/1-5[8:1],,,,7,,7,,
{8}3,2-5[8:1]/5,6,7-4[8:1],,3,2-5[8:1],5,
{8}6,7,3^8[8:1],4,6,7,2^7[8:1],4,
{4}6^3[8:1],2^7[8:1],6^3[8:1],2,
{16}3/4b,,2,5,1,,6,,4-7[8:1]/7,,3,,2,,1,,
7/8b,,6,1,5,,2,,8-3[8:1]/3,,7,,6,,5,,
3/4b,,2,5,1,,6,,3/7,,2,,1-5[8:1]/5,,6,,
{4}7-3[8:1],2^5[8:1],6^1[8:1],3,
{8}4^7[4:2]/2b,,,1,2,,3,,
4^7[4:2]/2,,,1,2,,3,,
5^8[4:2]/2,,,1,2,,3,,
7^4[4:2]/4,,,1,2,,3-7[8:1],,
{8}6^1[8:1],6,2^5[8:1],,8-5[8:1],8,4-1[8:1],,
6^1[8:1],6,2^5[8:1],,8-5[8:1],8,4-1[8:1],,
{8}6^3[8:1],,2-5[8:1],,6^3[8:1],7,8-4[8:1],,
{16}2h[8:4],,,,,,,,3,,,,3,4,3,4,
{8}2b,7,6/4,5,
{16}2/4^7[8:1],,,3,,,2,,
{8}1,7,6/4,5,
{16}2/4^7[8:1],,,3,,,2,,
{8}1,7,6/4,5,
{16}2/4^7[8:1],,,3,,,2,,
{16}1,8,2,,1,7,2,,
1/6,,4/5,,3,4,2,,
{8}7b/5b,4,5/3,2,
{16}4/1^4[8:1],,,6,,,7,,
{8}8,4,5/3,2,
{16}4/1^4[8:1],,,6,,,7,,
{8}8,4,5/3,2,
{16}4/1^4[8:1],,,6,,,7,,
{16}8,5,7,,8,4,7,,
8/2,,3/4,,6,4,5,4,
{16}7b,,1,,5,3,7,,
4/8^5[8:1],,4,,3,,2,,
1h[8:1],,5,,2,7,3,,
8/4^1[8:1],,8,,7,,6,,
5h[8:1],,1,,6,3,7,,
4/8^5[8:1],,4,,3,,2,,
1,8,2,,1,7,3,,
1/6,,4/5,,3,4,2,,
7-4[8:1]/8b,,8,,1,,2,,
3-8[8:1]/5,,5,,6,,7,,
8-3[8:1]/1-5[8:1],,2,,,,,,
4-1[8:1]/6-2[8:1],,7,,,,,,
3b/8b,,4,5,4,6,3,,2/1,,3,5,4,6,3,,
2b,1,2,1,3,1,3,1,4,1,4,1,4,1,4,1,
{8}5-1[8:8],,,,6h[384:1],,,,
7h[384:1],,,2h[384:1],3h[384:1]/8h[384:1],,2-5[8:1]/5h[384:1],,
{8}2b/6^3[8:1],7h[8:2],,,2-7[8:1]/8-4[8:1],,2/8^3[8:1],,
5-1[8:1],6,7,,4/5-1[8:1],3,2-5[8:1],,
6^3[8:1],7h[8:2],,,4/8-4[8:1],3,8/2^5[8:1],1,
6-2[8:1],7,8,,6/5-1[8:1],7,8-4[8:1],,
8b/3-6[8:1],2h[8:2],,,7-2[8:1]/1-5[8:1],,7/1-6[8:1],,
4-8[8:1],3,2,,2-5[8:1]/4-8[8:1],3,2/4,,
7-3[8:1]/6,5,,2,{16}4/1-5[8:1],,,6,,,7,,
{8}8-5[8:1]/3-8[8:1],4/1,,,4/1,2,3/7-3[8:1],,
{8}7b/2^5[8:1],1h[8:2],,,6-1[8:1]/8-4[8:1],,6/8^5[8:1],,
2-5[8:1],1,6,,4/2-5[8:1],1,6-3[8:1],,
2^5[8:1],1h[8:2],,,2/6-2[8:1],3,6/4^1[8:1],5,
8-4[8:1],7,6,,3/8-4[8:1],2,8/1-5[8:1],,
1b/6-3[8:1],7h[8:2],,,2-7[8:1]/8-4[8:1],,2/8-3[8:1],,
5-1[8:1],6,7,,7-4[8:1]/5-1[8:1],6,7/5,,
2-6[8:1]/3,4,,7,{16}5/8-4[8:1],,,3,,,2,,
{8}1^4[8:1]/6^1[8:1],,,,{16}7/5,,4,,3-6[8:1],4,2,,
{16}3b/6,,7,,8,,3,4,
2-5[8:1],,5-1[8:1],,6,,,,
7,,6,,1/5,,2,3,
4-1[8:1]/8-4[8:1],,,,4-7[8:1]/8,,,,
3,,2,,1,,6,5,
7-4[8:1],,4-7[8:1],,3,,2,,
1,,3,6,2,,3,5,2,,
3/7,,2-7[8:1],6,3,6,
2b,,5,,5,,2,1,
3-8[8:1],,6-1[8:1],,5,,,,
2,,3,,7/4,,6,5,
4-7[8:1]/2-5[8:1],,,,4-1[8:1]/2,,,,
5,,6,,7,,3,4,
2-5[8:1],,7-4[8:1],,2,,7,,
3,,2,6,3,,2,7,3,,
2/8,,3^6[8:1],1,2,1,
{16}3b,,8,,7/4,,6,5,
7-4[8:1],,4-1[8:1],,3,,,,
2,,3,,4/5,,6,7,
8-5[8:1]/5-2[8:1],,,,8-3[8:1]/5,,,,
7,,6,,5,,2,1,
3-8[8:1],,8-4[8:1],,7,,6,,
5,,7,3,6,,7,2,6,,
7/1,,6-3[8:1],4,7,4,
6b,,2,,2/5,,1,6,
8-4[32:3],,5-2[8:1],,6,,,,
7,,6,,5/1,,2,3,
4-7[8:1]/1-5[8:1],,,,4/1,,,,
4/6,,4/6,,3,4,2,,
3/5,,3/5,,2,4,1,,
5/8-4[8:1],,5-1[8:1]/8,,8,,5,,3,2,1,8,7,6,5,4,
{384}3^8[8:15],8^5[8:15],,,,,,,,,,,,,,,,,,,,,,,{16},,,,,,,{4},,
{4},,,,,E
