&title=腐れ外道とチョコレゐト
&artist=ピノキオP
&first=0
&des=Noel
&lv_5=14
&inote_5=(260){4},,,,,,,,,,,,,
{16},,6,,5,,6,,,,
{24}2,3,4,5,6,7,
{16}81,,,,1,,,,1,,,,1,,,,18,,8qq5[2:1]/1pp4[2:1],,,,,,,,,,,,,,,,,,4bh[4:2]/5bh[4:2],,,,,,,,,,,,,,,,5h[4:2]/4h[4:2],,,,,,,,,,,,34,,,,4h[4:2]/3h[4:2],,,,,,,,,,,,56,,,,5h[4:2]/6h[4:2],,,,,,,,,,,,54,,,,45,,4,,4,,5,,5,,4,,4,,45,,5h[4:2]/4h[4:2],,,,,,,,,,,,34,,,,4h[4:2]/3h[4:2],,,,,,,,,,,,56,,,,5h[4:2]/6h[4:2],,,,,,,,,,,,56,,,,7x/3x,,,,,,1x/5x,,,,,,8x/4x,,,,1x/8x,,,,18,,,,1,,5,,2,,4,,3,,,,3,,,,3-8[8:1],,4,,3,,,,1x/8x,,,,18,,,,8,,4,,7,,5,,6,,,,6,,,,6-1[8:1],,5,,6,,,,4x/5x,,,,45,,,,4,,8,,3,,1,,2,,,,2,,,,2-6[8:1],,1,,2,,,,4x/5x,,,,45,,,,5,,4,,5,,4,,6,,3,,3,,3,,3,,3,,3,,6,,6,,4,,4,,5,,5,,2,,2,,7,,7-5[8:1],,,,1-3[8:1],,,,8-4[8:1],,,,,,,,1,,1,,7,,7,,3,,3,,5,,5,,E8/E4,,,,E7/E3,,,,E6/E2,,,,,,,,6>3[8:1],,,,,,,,8,,1,,1,,2,,2,,3,,3,,2,,2,,1,,1,,8,,8,,1,,8,,2,,8,,3,,8,,4,,5-8[8:1],,,,4-1[8:1],,,,5-8[8:1],,,,,,,,4qq4[4:3],,,,,,,,7,,,,6,,,,5pp5[4:3],,,,,,,,2,,,,3,,3,,4qq4[4:2],,,,,,,,5,,5,,6,,6,,E8/B8,,,,E6/B5,,,,B4/E4,,,,B1/E2,,,,2,,1,,2,,1,,3,,8,,4,,7,,5,,6,,5,,6,,4,,6,,3,,6,,2,,,,6-1[8:1]/2-5[8:1],,62,,,,,,Ch[2:1],,,,E3h[4:1]/E7h[4:1],,,,,,,,,,,,,,,,1,,2,,3,,2,,1,,2,,3,,2,,1,,2,,3,,2,,1,,2,,3,,2,,1,,2,,3,,2,,1,,2,,3,,2,,12,,,,38,,,,74,,,,,,,,8,,7,,6,,7,,8,,7,,6,,7,,8,,7,,6,,7,,8,,7,,6,,7,,1b-5[8:1],,,,1b,,,,8b,,1b-4[8:1],,,,1b,,2b,,,,2b,,,,8b,,1b,,,,,,8qq8[4:3],,,,,,,,3,,,,2,,,,1pp1[4:3],,,,,,,,6,,,,7,,7,,8qq8[2:1],,,,,,,,2,,2,,1,,1,,1x/8x,,,,2x/7x,,,,3x/6x,,,,4x/5x,,,,3,,5,,3,,6,,4,,6,,2,,4,,3,,7,,5,,6,,C,,,,,,,,,,,,,,,,,,,,,,,,6,5,6,5,6,5,6,,,,,,,,,,2>5[8:1],,,,1,,8,,7<4[8:1],,,,8,,1,,2q6[8:1],,,,8x,,7x,,,,7,,1,,7,,2,,7,,3,,7,,4,,7,,5,,7,,7h[2:1]/6h[2:1],,,,,,,,,,,,,,,,7<4[8:1],,,,8,,1,,2>5[8:1],,,,1,,8,,7p3[8:1],,,,1x,,2x,,,,2,,8,,2,,7,,2,,6,,2,,5,,2,,4,,2,,2-7[2:1]/3-6[2:1],,,,,,,,,,,,,,,,1,,1,,8,,8,,1,,1,,8,,8,,2-5[8:1],,7-4[8:1],,2,,7V51[4:1],,,,,,,,,,3,,3,,5,,5,,4,,4,,6,,6,,2,,2,,7,,7,,1x,,1x,,,,,,8,,8,,8-5[8:1],,8,,8,,,,1,,1,,2,,2,,2-5[8:1],,2,,2,,,,6x/4x,,6x/4x,,,,,,5x/2x,,,,,,3x/7x,,,,,,,,,,1h[4:1],,,,2h[4:1],,,,3h[16:18],,,,4,,4,,,,5,,5,,,,4,,4,,,,,,5,,4,,5,6,7,8,1,2,3,4/5bw1b[2:1],,,,,,,,,,,,,,,,2h[4:3]/8h[4:3],,,,,,,,,,,,,,,,1b-5[8:1],,1,,,,6h[4:1],,,,5,6,5,6,5,,,,,,,,5,6,7,8,1,2,3,4,5,6,8h[4:1]/7h[4:3],,,,,,8h[4:1],,,,,,8,,,,,,,,8h[4:1],,,,7h[4:1],,,,6h[4:1],,,,5b-1[8:1],,5,,,,7<5[8:1],,8,,7,,,,2>4[8:1],,1,,2,,,,8h[4:1],,,,5h[4:1],,,,7,,,,7h[16:10],,,,,,8,,,,8,,,,,,,,1h[4:1],,,,2h[4:1],,,,3h[4:1],,,,4h[2:1],,,,,,,,5bqq2b[1:1],,,,,,,,6h[1:1],,,,,,,,,,,,,,,,1bhx[4:3],,,,,,,,,,,,5,,,,15,,15,,26,,26,,37,,37,,48,,48,,1v6[4:1]/5,,,,,,,,,,,,47,36,25,,5x-8[8:1]/2x-4[8:1],,,,,,,,,,,,8xh[4:1],,,,6xp3[2:1],,,,,,,,8h[2:1],,,,,,,,6h[8:1],,7h[8:1],,5h[8:1],,6,,,,8,,7,,6,,5,,4-8[8:1],,,,5h[4:1],,,,,,,,,1,,2,,3,,4-8[8:1],,,,5h[4:1],,,,,,,,5x/1x,,,,15,26,37,48,51,,,,15,48,37,26,15,,,,8h[8:1],,4h[8:1],,1h[8:1],,5h[8:1],,2pp6[2:1],,,,,,,,,,,,,,7,8,1,,,,1h[8:5],,,,,,,,,,2,,,,1-5[8:1]/2-6[8:1],,,,,,,,3-7[8:1]/4-8[8:1],,,,,,,,7h[8:1],,8h[8:1],,6h[8:1],,1h[4:1],,,,5h[8:1],,4h[8:1],,3h[8:1],,2h[8:1],,1-5[8:3],,,,,,,,,,,,,46,37,28,1w5[8:1],,,,,,,,,,,,,,,3hx[4:1],,,,4hx[4:1],,,,5hx[4:1],,,,8hx[4:1],,,,4,,84,,73,,73,,62,,15,,,,,,3b>8[8:1],,,,4,,5,,6<1[8:1],,,,5,,4,,3p7[8:1],,,,6x,,6x,,,,1,,1,,7,,7,,3,,3,,5,,5,,4,,4,,4v1-3-8[2:1]*v7-5-8[2:1],,,,,,,,,,,,,,,,,,6<1[8:1],,,,5,,4,,3>8[8:1],,,,4,,5,,6q2[8:1],,,,3x,,3x,,,,2,,2,,8,,8,,2,,2,,6,,6,,4,,4,,5pp1[2:1]*qq1[2:1],,,,,,,,,,,,,,,,,,,3b>8[8:1],,,,4,,5,,6<1[8:1],,,,5,,4,,3p7[8:1],,,,6x,,5x,,,,5,,4,,4,,5,,5,,3,,3,,6,,6,,6q7>8[2:1]/3p2<1[2:1],,,,,,,,,,,,,,,,,,,,34,,34,,25,,25,,5h[8:1]/2h[8:1],,,,,,56,,56,,47,,47,,4h[8:1]/7h[8:1],,,,,,,,,4,,4,,5,,5,,4,,4,,5,,5,,
{24}1,2,3,4,5,6,7,8,1,2,3,4,5,6,7,8,1,,,,,,,,
{16}7b-3[8:1],,7,,2-6[8:1],,2,,8-4[8:1],,8,,1-5[8:1],,1,,6-1[8:1],,6,,3-7[8:1],,3,,,,,,,,,,8b-3[8:1],,8,,2-6[8:1],,2,,7-3[8:1],,7,,5-8[8:1],,5,,6-3[8:1],,6,,2-7[8:1],,2,,,,,,,,,,
{8}1-5b[8:1],1,8-4b[8:1],8,2^5b[8:1],2,6^1b[8:1],6,4p8b[8:1],4,5q1b[8:1],5,3^8b[8:1],3,7-3b[8:1],7,
{1}4b>5b[4:13],,,,
{16},,1x-5[8:1]/8x,,,,1x/8xqq3[8:5],,,,1,,2,,3,,4,,,,4,,,,4>1[8:1]*<7[8:1],,4,,4,,,,,,1x/8x-4[8:1],,,,1xpp6[8:5]/8x,,,,8,,7,,6,,5,,,,5,,,,5>2[8:1]*<8[8:1],,5,,5,,,,,,8x/1x-5[8:1],,,,8xqq5[8:5],,,,1,,2,,3,,4,,,,4,,,,4,,4,,4,,,,4b/5hb[8:1],,4,,4b/6hb[8:1],,4,,4b/7hb[8:1],,4,,4b/8b,,,,5b/4hb[8:1],,5,,5b/3hb[8:1],,5,,5b/2hb[8:1],,5,,5b/1b,,,,4b/5hb[8:1],,4,,4b/6hb[8:1],,4,,4b/7hb[8:1],,4,,4b/8b,,,,5b/4hb[8:1],,5,,5b/3hb[8:1],,5,,5b/2hb[8:1],,5,,5b/1b,,,
{1}Ch[8:33],,,,
{16},,3-6[8:1]/E7,
