&title=ももいろの键
&artist=いよわ
&first=0
&clock_count=4
&lv_6=13
&des_6=桃子鸭
&inote_6=
(165){4},,,,,,,,3/4h[4:1],
{8}1,4>7[4:1],{2}3h[4:1],
{4}6/5h[4:1],{8}7,5<2[4:1],{2}6h[4:1],
{4}4h[8:1]/3-5[8:1],7,5h[8:1]/6-4[8:1],2,
{64}4-2[8:1],3-5[8:1],{4},{16},,,{32},{4}1h[8:1],8,
7/5h[4:1],{8}6>1[16:5],4,{2}3h[4:1],
{4}2/4h[4:1],{8}3<8[16:5],5,{2}6h[4:1],
{4}5h[8:1]/7<5[8:1],1,4h[8:1]/2>4[8:1],8>7[4:3],
{1}5h[4:3],
4/8V63[4:3],
2-5[2:1],
{2}6h[16:3],{64}4h[16:3],3h[16:3],{4},,{32}6/2>6[8:3],
,,,,,,,,,,,,,,{2}8h[4:1],
{4}6/5-3[8:1],6,6/2h[4:1],6,
6/1-4[8:1],6,6/5h[4:1],6,
6/4-2[8:1],6,7/5-1[8:1],7,
8/2h[4:1],8,{8}8/2,3,{4}4/6,
3/4<6[8:1],3,3/7h[4:1],3,
3/8<5[8:1],3,3/4h[4:1],3,
3/5-7[8:1],3/5,2/4-8[8:1],2/4,
1/7h[4:1],1,{8}1/7,6,{16}2,5h[64:13],{32},,,,3h,
4h,,,,,,,{4}7>2[8:1],4b,8/4,
3/7<4[8:1],3>8[8:1],5,6,
7/8-4[8:1],5,2/1-5[8:1],4V26[4:1],
8,8,{8}5,5,{4}6/4,
8/2>5[4:1],5-1[4:1],7,7,
2/6<1[4:1],1-5[4:1],3,3,
4/2-5[8:1],8,5/7-4[8:1],1<2[4:3],
{1}5h[2:1],
6-4[8:3],
2-5[8:3],
4-8[8:3],
8<5[8:3]*>3[8:3],
{12}6,6,5,7/4,,2,{6}1,{12}3,8h[4:1],,,3,
3,4,5/2,,7,{6}8,{12}6,5h[4:1],,,7,
5,6,3,4,2,{4}8-4[8:1],1V38[4:3],
{16}5h[64:1],,,5h[64:1],,,{8}5h[64:1],{16},5h[64:1],,,{4}5h[64:1],
6b/2b>5[8:1],{8}8V26[16:3],7,{4}4>1[8:1],4,
6/2>5[8:1],{8}8V26[16:3],7,{4}4>1[8:1],4,
6/2>5[8:1],{8}8-4[8:1],7,3-1[8:1],2,{4}5<8[4:1],
8>3[4:1],3<8[8:3],{2}1h[4:1],
{6}1h/2h,{12}3h,5,{6}4h,5h/7h[12:1],6h/8h[12:1],7h,
8h/1h,{12}7h,5,{6}6h,5h/3h[12:1],4h/2h[12:1],3h,
{4}1q5[8:1]/2>5[8:1],1/2,{16}6bV84[4:1],,,8,{8}6,1,
{16}2,,,4/3h,,,{8}5h/6<1[8:1],{32},,,,2b,3,{16}4,,,{8}3,
{4}3b/7b<4[8:1],{8}1V73[16:3],2,{4}5<8[8:1],5,
3/7<4[8:1],{8}1V73[16:3],2,{4}5<8[8:1],5,
3/7<4[8:1],{8}1-5[8:1],2,6-8[8:1],7,{4}4>1[4:1],
1<6[4:1],6>1[8:3],{2}8h[4:1],
{6}8h/7h,{12}6h,4,{6}5h,4h/2h[12:1],3h/1h[12:1],2h,
1h/8h,{12}2h,4,{6}3h,4h/6h[12:1],5h/7h[12:1],6h,
{4}8>3[8:1]/7q3[8:1],8/7,{16}6V48[4:1],,,5,{8}6,3<1[8:5],
{1}2h[4:3],
{8}2b/1b,{16}3h,4h,,6h,{8}5h,{16}7<4[8:1],8h,,,{4}7h/1h,
{64}3h[8:1],2h[8:1],,,,,,,,,,,{16}4h[8:1]/3h[8:1],{64},,,,,,,,5h,4h,,,,,,,4<7[8:1],5>2[8:1],,,,,,,,,,,,,,,{4}4/5,
{8}1>4[8:1],5,{4}1/6,7-3[8:1],{8}2>5[16:3],2,
{32}5p1[4:1],6,{16}7h[16:3],,,,,{8}8h[4:1],,,{4}2/4,
{6}5/3,{12}2h,1h,3h,3h,5h[12:1],4h,6h[12:1],5h,7h,7h,
{6}6/8,{12}1h,5h,2h,2h,4h[12:1],3h,5h[12:1],4h,6h[12:1],5h,
{6}7/4b,{96}5h/3h,,,,,,,,{12}3,{96}3h,4h,,,,,,,,,,,,,,,{6}5b/1,{96}2h/6h,,,,,,,,{12}6,{96}3h,6h,,,,,,,,,,,,,,,{2}8b/4b>5[8:7],
8p4[8:3],
,,,,,,,,{1}3<5[2:1],
4<6[2:1],
{2}5h[8:1],4h[8:1],
{4}8h[4:1],{8}1,1,1h/8h,1h/8h,2/7,2/7,
{96}6h,3,,,,,,,,,,,3h,6,,,,,,,,,,,5h,4,,,,,,,,,,,4h,5,,,,,,,,,,,{16}4,5,3,6,2,7,1,8,
{4}7b/2b-5[8:1],{8}2/6V84[16:5],7,{4}1>4[8:1],1,
6/2-5[8:1],{8}2/6V84[16:5],7,{4}1>4[8:1],1,
6/2-5[8:1],{8}2/8-6[8:1],7,8/4-8[8:1],3-1[8:1],4,3,
{16}6h[16:3],,,1,{8}8-4[8:1],2,{4}3/8,2/5h[4:1],
{12}3b,4h,2h,8h,1h,1h,7h,5h[12:1],6h,4h[12:1],5h,3h[12:1],
4b,4h,2h,8h,5h,6h,3h,5h[12:1],4h,6h[12:1],5h,7h[12:1],
{4}6<1[8:1]*q2[8:1],6,3bV51[16:3],{8}1/3,8,
{16}7h[8:1],,,6h[8:1]/5h[8:1],,,{8}3V51[16:3]/4<8[16:3],,3b/4b,,,{4}2b/7b-4[8:1],
{8}7/3V15[16:5],2,{4}8<5[8:1],8,
3/7-4[8:1],{8}7/3V15[16:5],2,{8}8-4[8:1],7,8,,
{4}3/7-4[8:1],{8}7/1-3[8:1],2,1/5-1[8:1],6-8[8:1],5,6,
{16}3h[16:3],,,8,{8}1-5[8:1],7,{4}6/1,7/4h[4:1],
{12}6b,5h,7h,1h,8h,8h,2h,4h[12:1],3h,5h[12:1],4h,6h[12:1],
5b,5h,7h,1h,4h,3h,6h,4h[12:1],5h,3h[12:1],4h,2h[12:1],
{4}3>8[8:1]*p7[8:1],3,6bV48[4:1],6/8<1[4:3],
{1}2h[4:3],
3h[2:1],
4h[2:1],
{2}5,6,
{1}6/5,
E
