&title=Exit This Earth's Atmosphere
&artist=Camellia
&first=0
&des=Shin
&lv_5=14+
&inote_5=(170)
{4},,,,,,5,5,5,5,5,5,5,
{20}8/1,2,3,4,5,6,,,,
{4}6,6,6,6,6,
{8}6,
{18}6,7,5,8,4,1,3,2,
{5},
{4}2,2,2,2,2,2,
{20}2b,3,4,5,6,7,
{5},
{4}7,7,7,7,7,
{7}7h[12:5],
{4},
{8}4b,3,4,3,4,3,4,3,4,3,4,3,4,3,4,
{20}3b,4,5,6,7,8,
{11},
{8}4-8[16:1],4,5-1[16:1],5,6-2[17:1],6,7-3[17:1],7,8-4[17:1],8,1,1,
{18}1b,2,8,3,7,4,6,5,
{11},
{8}B5,B4,B6,B3,B7,B2,B8,B1,B2,B3,B4,B5,B6,B7,B8,
{14}B1,B2,B3,B4,B5,B6,
{40}E7,E8,E1,E2,E3,E4,E5,E6,E7,E8,E1,E2,E3,E4,E5,E6,E7,E8,E1,E2,E3,E4,E5,Ch[23:8],
{15},,,,,,,,,,,,,,5/4b,6,7,5,8/1,8b/1b,1,3,2,3,4,3,4,5b/4b,
{19}1b,2,3,4,8b,7,6,5,
{14},5,4,5,7-3[26:2],7,2-6[27:2],2,,,4,4,5,5,6,6,1b,2,3,4,2b,3,4,5,3b,4,5,6,7,8,1,2,4,3,4,3,4,7/8,7/8,6b/1b,2,3,2,3,2,3,4,2,5,1,6,8,7,7,7,7,7,7,7,7-3-7[35:3],,,7,,6,6,5,5,4,4,3,3,2,2,1,1,8,8,,,
{16}5,4,5,4,5,4,5,4,5,4,5,4,5,4,5,
{14},1-4[36:1],1,8-5[36:1],8,,,7-4[36:1],7,8-3[36:1],8,,,7-2[37:1],7,6-3[37:1],6,,,5-8[37:1],5,4-1[37:1],4,
{15},,,2,3,1,3,2,4,6,5,6,7,4,7,8,3,8,1,2,1,8,2,7,3,6,4,5,6,4,7,3,8,2,1,1,1,1,1,1,1,1,1,1,1,1,2,2,2,2,2,2,2,2,2,2,3,3,3,3,3,3,3,3,3,3,3,3b,4,5,6,7,8,1,2,3,4,5,6,7,8,
{30}1b,2,3,4,5,6,7,8,1,2,3,4,5,6,7,8,
{50}1b,2,3,4,5,6,7,8,1,2,3,4,5,6,7,8,1,2,3,4,5,6,7,8,
{1},,,,,,,
{4},,,
{5},
{8}5,4,6,5,4,3,4,3,5,6,5,7,2,1,3,1,2,8,7,6,8,3,2,4,5,4,6,5,4,6,3,7,2,8,1,8,1,7,2,6,3,5,4,2,3,1,6,5,7,3,2,4,7,6,8,5,4,6,4,3,5,6,5,7b,5,4,6,5,4,3,4,3,5,6,5,7,2,1,3,1,2,8,7,6,8,3,2,4,5,4,6,5,4,6,3,7,2,8,1,8,1,7,2,6,3,5,4,2,3,1,6,5,7,3,2,4,7,6,8,5,4,6,4,3,,,8<1[12:15],,8b,,,,,,,,,,,,
{9}5,6,4,,3,1>8[12:14],,1b,,,,,,,,,,,
{9}4h[8:2],,5h[8:2],,,,,,,,8h[7:2]/1h[7:2],,,,,,,,,4,5,3h[2:2],,,,,,,,,,,,,,,,,8hb[13:2]/1hb[13:2],,
{4}5/4,5/4,5/4,5/4,6/5,7/6,8/7,8/1,1/2,2/3,4/3,5/4,5/4,5/4,5/4,5/4,5/7,4/2,5/7,4/2,5/7,4/2,5/7,4/2,5/7,4/2,5/7,4/2,5/7,4/2,5/7,4/2,5b/4b,3,3,3,3,3,3,
{20}3b,4,5,6,7,8,,,,,
{4}8,8,8,8,8,
{9}1,7,2,,
{4}2,2,2,2,2,2,
{9}2,3,1,,
{4}1,1,1,1,1,
{20}1,1,1,1,1,
{30}8,7,6,2,3,4,7,6,5,3,4,5,,,,,,,
{13}7-3[26:2],,,,7/1,,,6-1[26:2],,,6/4,,,,8-4[27:2],,,8/1,,,4-7[26:2],,,,4/2,,,5-1[26:2],,,5/3,,,,2-6[27:2],,,2/4,,,7-3[26:2],,,,7/1,,,6-1[26:2],,,6/4,,,,8-4[27:2],,,8/1,,,,,
{9}1,1,1,1,1,1,1,1,1,1,1,
{25}1bx,2x,3x,4x,5x,6x,7x,8x,1x,2x,3x,4x,5x,6x,7x,8x,
{40}1x,2x,3x,4x,5x,6x,7x,8x,1x,2x,3x,4x,5x,6x,7x,8x,
{10},,,,,,,,,,
{13}7-3[26:2],,,7/1,,,6-1[26:2],,,6/4,,,8-4[27:2],,,8/1,,,,,
{26}1b,2,3,4,8b,7,6,5,
{13},,8-4[29:2],,,8,,,1-5[30:2],,,1,,,
{30}1b,2,3,8,7,6,2,3,4,7,6,5,1,2,3,8,7,6,8-4[30:2]/1-5[30:2],,,,,,,8/1,,,,,,,,
{13}3-8[31:2],,,3/4,,,1-5[31:2],,,1/7,,,4-8[31:2],,,6/4,,,,,
{26}8b,7,6,5,1b,2,3,4,,,
{12}6,5,6,7,5,8,4,1,3,2,,,,1-5[40:2],,1bx,,,8-4[40:2],,8bx,,,,8bx/1bx,,
{15}1<6[60:5],,,2x,3x,4x,5x,,6-1[138:2]/5-2[138:5],,,6/5,,,
{30}8b/1b,7/2,6/3,5<8[139:2]/4>1[139:2],,,,,,5/4,,,,,,
{26}1b,2,3,4,8b,7,6,5,,,,
{16}5>2[140:7],,,6x,7x,8x,1x,,
{30}8b/1b,7/2,6/3,5/4,,,,,,,,,,,
{30}1b,2,3,8,7,6,2,3,4,7,6,5,1,2,3,8,7,6,8-4[50:2]/1-5[50:2],,,,,,,8/1,,,,,,,,
{16}8<5[143:7],,,1x,2x,3x,4x,
{30}8b/1b,7/2,6/3,5/4,,,,,
{16}6-1[40:2]/5-2[40:2],,,6/5,,,
{30}8b/1b,7/2,6/3,5<8[20:2]/4>1[20:2],,,,,,5/4,,,,,,
{14},,,,5,4,6,3,7,2,8,1bx,2,3,4,5,6,7,8,
{40}1,2,3,4,5,6,7,8,1,2,3,4,5,6,7,8/1b,,,,,
{6}1,1,2,1w5[20:2],,,7-3[20:2],,,5<8[20:2]/4>1[20:2],5/4,,
{27},,1bx,2x,3x,4x,8bx,7x,6x,5x,,,,,,,,,,,
{5}8<5[20:2]/1>4[20:2],8/1,,
{30}1b,2,3,8,7,6,2,3,4,7,6,5,1,2,3,8,7,6,1,2,3,,,
{4}7w3[12:1],,
{7}1,1,2,1w5[20:2],,,7-3[20:2],,,5<8[20:2]/4>1[20:2],5/4,,,
{4}B5,
{15}B3,B4,,,,
{13}B7,B2,E7,B6,,,
{20}1,1,1,1,1,1,1,1,1,1,
{30}1,8/2,7/3,6/4,5,,,,,,,,
{15}8b/1b,,
{7}1,1,2,1w5[20:2],,,7-3[20:2],,,5<8[20:2]/4>1[20:2],5/4,D7/D3,,,,,
{5}8<5[20:2]/1>4[20:2],8/1,,
{30}1b,2,3,8,7,6,2,3,4,7,6,5,1,2,3,8,7,6,1,2,3,,,
{4}7w3[12:1],,
{6}1,1,2,1w5[20:2],,,7-3[20:2],,5<8[20:2]/4>1[20:2],5/4,
{10}7-3[30:2],,7/1,,,
{30},
{10}6-1[30:2],,6/4,,,
{30},
{10}1-5[30:2],,1/3,,,1w5[20:2],,,,,8b/1b,
{1},,,,,,,
{4},,,
{5},
{12},
{8}5,4,6,5,4,3,4,3,5,6,5,7,2,1,3,1,2,8,7,6,8,3,2,4,5,4,6,5,4,6,3,7,2,8,1,8,1,7,2,6,3,5,4,2,3,1,6,5,7,3,2,4,7,6,8,5,4,6,4,3,5,6,5,7b,5,4,6,5,4,3,4,3,5,6,5,7,2,1,3,1,2,8,7,6,8,3,2,4,5,4,6,5,4,6,3,7,2,8,1,8,1,7,2,6,3,5,4,2,3,1,6,5,7,3,2,4,7,6,8,5,4,6,4,3,,,8<1[12:15],,8b,,,,,,,,,,,,
{9}5,6,4,,3,1>8[12:14],,1b,,,,,,,,,,,
{9}4h[8:2],,5h[8:2],,,,,,,,8h[7:2]/1h[7:2],,,,,,,,,4,5,3h[2:2],,,,,,,,,,,,,,,,,8hb[13:2]/1hb[13:2],,
{4}5/4,5/4,5/4,5/4,6/5,7/6,8/7,8/1,1/2,2/3,4/3,5/4,5/4,5/4,5/4,5/4,5/7,4/2,5/7,4/2,5/7,4/2,5/7,4/2,5/7,4/2,5/7,4/2,5/7,4/2,5/7,4/2,5b/4b,
{13}7-3[26:2],,,,7/1,,,6-1[26:2],,,6/4,,,,8-4[27:2],,,8/1,,,4-7[26:2],,,,4/2,,,5-1[26:2],,,5/3,,,,2-6[27:2],,,2/4,,,7-3[26:2],,,,7/1,,,6-1[26:2],,,6/4,,,,8-4[27:2],,,8/1,,,,,
{9}1,1,1,1,1,1,1,1,1,
{25}1bx,2x,3x,4x,5x,6x,7x,8x,1x,2x,3x,4x,5x,6x,7x,8x,
{40}1x,2x,3x,4x,5x,6x,7x,8x,1x,2x,3x,4x,5x,6x,7x,8x,
{10},,,,,,,,,
{16},
{7}5b/4b,
{13}5,4,6,3,2,4,6b,5,7,1b,2,8,7b,8,6,2,7,6,3,7-3[15:1],,,7,,,2w6[15:1],,,2b,,,5,4,6,3,2,4,6b,5,7,1b,2,8,7b,8,6,2,7,6,3,5,4,6,3,2,4,6b,5,7,1b,2,8,7b,8,6,2,7,6,3,5,4,6,3,2,4,6b,5,7,1b,2,8,7b,8,6,2,7,6,3,4,2,5,4,6,6b,7,5,4,
{40}1b,2,3,4,5,6,7,8,1,2,3,4,5,6,7,8,
{13},,5,4,6,3,2,4,6b,5,7,1b,2,8,7b,8,6,2,7,6,3,5,4,6,3,2,4,6b,5,7,1b,2,8,7b,8,6,2,7,6,3,5,4,6,3,2,4,6b,5,7,1b,2,8,7b,8,6hb[15:3],,,,
{10}6/5,5/4,4h[15:4]/3h[15:4],,,6hb[15:3],,,,6/5,5/4,4h[15:4]/3h[15:4],,,,
{20}1bx,2x,3x,4x,5x,6x,7x,8x,1x,2x,3x,4x,5x,6x,7x,8x,
{25}1b,2,3,4,5,6,7,8,1,2,3,4,5,6,7,8,
{35}1b,2,3,4,5,6,7,8,1,2,3,,,,,,,,,,,
{16}1-5[16:1],,6,,1-3[16:1],,7,,1-5[16:1],,6,,1-3[16:1],,7,,1-5[16:1],,6,,1-3[16:1],,7,,1-5[16:1],,6,,1-3[16:1],,{25}5,6,7,{16}1-5[16:1],,{25}7,6,5,{16}1-3[16:1],,{25}8,7,6,{16}1-5[16:1],,6,,1-3[16:1],,7,,1-5[16:1],,6,,1-3[16:1],,7,,1-5[16:1],,6,,1-3[16:1],,7,,1-5[16:1],,{25}8,7,6,{16}1-3[16:1],,7,,1-5[16:1],,6,,1-3[16:1],,{25}5,6,7,{16}1-5[16:1],,6,,1-3[16:1],,7,,1-5[16:1],,{25}7,6,5,{16}1-3[16:1],,7,,1-5[16:1],,6,,1-3[16:1],,7,,1-5[16:1],,6,,1-3[16:1],,7,,
{20}5b,6,7,8,1,2,3,4,5,
{40}6,7,8,1,2,3,4,5,6,
{16}8-4[16:1],,2,,8-6[16:1],,3,,8-4[16:1],,2,,8-6[16:1],,3,,8-4[16:1],,2,,8-6[16:1],,3,,8-4[16:1],,2,,8-6[16:1],,{25}4,3,2,{16}8-4[16:1],,{25}2,3,4,{16}8-6[16:1],,{25}1,2,3,{16}8-4[16:1],,2,,8-6[16:1],,3,,8-4[16:1],,2,,8-6[16:1],,3,,8-4[16:1],,2,,8-6[16:1],,3,,8-4[16:1],,2,,,,,
{13}5,4,6,3,2,4,6b,5,7,1b,2,8,7b,8,6,2,7,6,3,5,4,,
{20}1b,2,3,4,5,6,7,8,1,2,3,4,5,6,7,8,1,2,3,4,5,6,7,8,
{40}1x,2x,3x,4x,5x,6x,7x,8x,1x,2x,3x,4x,5x,6x,7x,8x,
{45}1bx,2x,3x,4x,5x,6x,7x,8x,1x,2x,3x,4x,5x,6x,7x,8x,1x,2x,3x,4x,5x,6x,7x,8x,1xb,2xb,3xb,4xb,5xb,6xb,7xb,8xb,,,,,,,
{15}6,5,6,,3,4,3,,6,5,6,,3,4,3,,7,8,7,,2,1,2,,7,8,7,,2,1,2,,7,7,7,,6,6,6,,5,5,5,,4,4,4,,3,3,3,,7,5,7,,2,4,2,,7,5,7,,2,4,2,,E8,B7,B6,,E2,B2,B3,,E2,C,E6,,E8,B7,B6,,E2,B2,B3,,E2,C,E6,,8<5[16:1]/1>4[16:1],,,,8/1,,,5<8[16:1]/4>1[16:1],,,,5/4,,,5,4,6,7,8,6,2,1,3,4,3,5,,6,5,6,,3,4,3,,6,5,6,,3,4,3,,7,8,7,,2,1,2,,7,8,7,,2,1,2,,7,7,7,,6,6,6,,5,5,5,,4,4,4,,3,3,3,,7,5,7,,2,4,2,,7,5,7,,2,4,2,,E8,B7,B6,,E2,B2,B3,,E2,C,E6,,E8,B7,B6,,E2,B2,B3,,E2,C,E6,,8<5[16:1]/1>4[16:1],,,,8/1,,,5<8[16:1]/4>1[16:1],,,,5/4,,,5,4,6,7,8,6,2,1,3,4,3,5b,
{30},
{4}5,5,5,5,5,5,5,
{20}8/1,2,3,4,5,6,,,,
{4}6,6,6,6,6,
{8}6,
{18}6,7,5,8,4,1,3,2,
{5},
{4}2,2,2,2,2,2,
{20}2b,3,4,5,6,7,
{5},
{4}7,7,7,7,7,7,
{8},
{9}5,5,
{15},,
{4}5,5,5,5,5,5,
{20}8/1,2,3,4,5,6,,,,,
{4}6,6,6,6,6,
{8}6,
{18}6,7,5,8,4,1,3,2,,,,
{4}7,7,7,7,7,7,
{20}2b,3,4,5,6,7,,,,,
{4}4,4,4,Ch[5:5],
E
