&title=LAST PROPOZE
&artist=あとぅす feat.橘花音
&first=0.04
&des_5=Aria
&lv_5=13+
&des=Aria
&inote_5=(144),,,,,,,,
{8}6,5,4,3,6,5,4,3,7h[4:1],,1,1,7,8,6,6,5h[4:1],,,
{16}E3,E4,E5,,B7/B8,,
{8}E7,E6,E5,E1,E2,
{16}E6,E5,E4,,,,
{8}1,,
{2}2-4[8:1]/8xh[4:1],7xh[4:1]/5-3[8:1],
{8}6xh[4:1]/1-3[8:1],,,
7x,8xh[4:1]/4-2[8:1],,,,
1xh[4:1]/7qq4[1:1],,,,
E4,,E3,,E2,,Ch[4:3],,E6,,E7,,
{4}8h[8:1],8h[8:1]/C,8h[8:1]/E4,8h[8:1]/E3,8h[8:1]/E2,
7h[8:1]/1h[8:1],
{16}3,4,3,,
{8}2-6[8:1]/6,7/1,6b/2b,7,
{16}7,8,,6h[16:3]/1,,,1,6,5,8,3,4,2V47[4:1],1,2,1,,8,,8h[16:3],,,
1x,,2/1,,7,5,6h[8:1],,4,5,3h[8:1],,1,2,1<6[8:1],2,8,3,1,,3h[8:1],,
5,4,5,3,4,2,6,5,7b,,,7,8-4[8:1],,6/1,,7b/8b,,5,,5,3,,4h[8:1]/2h[8:1],,,
1,4,3,6,5-8[8:1],7,2b,,5/3,,2x,2xh[8:1],,1,,3,8,4,7,5,6,4,,,
3<6[8:1],4,3,4,,7,,7,,4,5,3,4,2,,,
6>3[8:1],5,6,5,,2,,2,,2,1,,8/3,,7/4>1[2:1],,,,
{4}C,C,C,8V25[2:1]/C,C,C,C,6<1[4:1]/4,C,2>5[4:1],C,
{16}6,,,7/5h[16:3],,,7,6,5h[8:1],,
4,5,4,,3,,
{4}4/2>6[2:1],C,C,C,5V38[2:1]/C,C,C,C,
7/1>4[4:1],C,5<8[4:1],C,
{8}2,2,8/3-8[8:1],8,7x/3x,6,5/1,2,6b/3b,
{16}5,4,6h[8:1],,8,,7/1,,2,3,4,,6/4,,7/5,,6,5,6,,4,,5/3,,7,6,5,,4/3,,
5/2-6[8:1],,
{8}6V48[4:1],2,8,7,6,7-3[8:1],3V51[4:1],7,1,2,
{16}2x,3,4h[8:1],,8,7,6<1[8:1],,2,,6/3,,3,,8x/2,,6,5,7<4[8:1],,
{8}3,7/1,3,1x/2xV46[16:3],
{16},6/2,,,7,,8<5[8:1]*>3[8:1],,,,8,,,,
6xh[16:3]/2x,,,5h[16:3],,,4-6[8:1],,5/3,,2,,2,,8/1,,7b/3h[16:3],,,
4h[16:3],,,5-3[8:1],,6/4,,7,,7x,,8,,
{8}6b/1b,6/1,2,3/4,5,6/4,7,7,8/2,2,2/B1,2,2/B7,2,2/B3,2,
5x-7[8:1]/3x-5[8:1],,5V31[4:1]/3,,8,,8,7,6<1[8:1]/1>4[8:1],,6/1,,
5xh[16:3],
{16},6,5,,5,,7/4,,
{8}7/4,6,5/3,2,2,4/3,5,6/4,6,6/B5,6,6/B3,6,6/B7,6,7-3[8:1]/1,,
3,2,1-4[8:1]/4-7[8:1],,4/1,,8x,8,7x/1x,
{16}6,5,,3,4,,
{8}5/3-8[8:1],6,7h[4:1]/3b,,
1>3[8:1],1,8,7,6-1[8:1]/4,6,5,4,3<6[8:1]/8,3,7,8,
{4}1-6[8:1],1/4-1[8:1],7-4[8:1]/4,7/2-7[8:1],2/5w1[8:1],5,7x/3x,
{24}6,5,6,
{16}5,7,4,,
{8}8,6b/2b,5-1[8:1],5,3-8[8:1],3,7v4[8:1],7,1,2b-6[8:1],2,
5-8[8:1],5,1>4[8:1],1,5,6,
{16}7,5,7,5,8,1,8,1,4,3,4,3,
{32}5,6,7,8,1,2,3,4,
{16}5b/2b,,,6b/4b,,,8b/1b,,,5b/3b,,,
B6/B7/Cf/B2/B3,,
{8}8x/1x,
{16}2,7,2,7,3,6,4,5,2,7,4,5,3,6,1,8,
{8}7x-4[8:1]/2x,6,7/3-1[8:1],1-5[8:1],5x/3,6,7qq8[4:1],8,7/1,
{16}2,2<4[16:5],,3,,2/6h[16:3],,,,,
{8}8v5[8:1],1,8/2,
{16}2,3,4-1[8:1],,
{8}5,7-3[8:1]/4,8,7/2>5[8:1],1,
7b>2[8:1]/2,,7/4b<7[8:1],,4/1b,
{16},1x,1x-5[8:1],,7/2,,8/1,,
6h[8:1],,4<7[8:1],5,3,4,2,,2,,
{8}8-4[8:1]/1,7/2,8/1,3h[8:1],
{16}5>2[8:1],4,6,5,7,,7,,
{8}7<4[8:1]/8>3[8:1],6/1,7/8,,6x/2x,3,5/4,6,7/5,7/5,
{32}7,8,1,2,3,4,5,6,7,8,1,2,3,4,5,6,7-2[8:1]*-4[8:1],,,,,,,,
{8}7x,,
{16}3x,4,3,4,2x,6,2,6,3x,7,4,5,1x,6,3x,4,
2x,5,2x,5x,1,6x,1,6x,
8,7,1,6,4x,5,3x,7,2x,1,2,1x,3,8,3x,8,4x,7,1x,8,3x,5,2x,6,
1b,7,5,6,2b,8,3,4,8b,7,2,6,
{8}3p7[8:1]*>8[8:1],5x/4x,3b,
{16},,6x,1x,6,1x,5,2,4x,3,5x,4,6b,5,8b,2,4b,3,7x,1x,6,2x,5,4,8x,2,
7x,3,6x,4,5x,3,5,3,6,4,6,4,7,5,7x,5,8x,4,8x,4,
1x,2,1,2,6x,5,6,5,7x,8,7,8,4x,3,4,3,
{8}4bq5[4:3]*>5[4:3],,,,,,,,,,
7/3,
{16}6,5,,3,4,,5-7[8:1]/2-5[8:1],,
{8}1,5/2,,
8,8,7/1,
{16}6,5,7,5,6,,
{8}5/4-7[8:1],3,4/2-5[8:1],1,8/2,7,6x/4x,3,5/2,
{16}3,4,3<6[8:1],,
{8}7,8/3,7,7-5[8:1]/8,7/8-4[8:1],7x-3[8:1],8x-2[8:1],7x>6[16:5],8x,7x,,
1,2,8-6[8:1]/3-5[8:1],1,8/3,,1x/2x,
{16}3qq4[4:1],3,,,
{8}5,6,7,8<3[4:1],2,3<8[4:1],2,1,2,3h[4:1],,1,8-3[8:1]/2,7,8/6-1[8:1],5,6/4,3h[4:1],,
6<3[4:1],,3>6[4:1],,4-8[8:1],,4,,7x/1x,
{16}6,5,6,,3,4,3,,6,5,7,,3,4,2,,8,1,8-4[8:1],,7/2,,8x/Ch[8:1],,,,
{4},
E
