&title=Six Seven
&artist=Laurinha Costa
&first=0
&des_5=67
&lv_5=6+7
&des=67
&inote_5=(160){1},
{8},,6,,,,7,,,,6,,,,7,,
{8},E5h[8:7],6,,,,7,,,,6,,,,7,,
{8}4xb,,,D7,E7,E6,E5,E4,E3,,,,D3,D4,D5,D6,
{8}D7,,,A6,C,E8,E4,A2,{16}D1,E1,{8},C,D5,D8,D6,D2,D4,
{8}C,,,D7,A7,D8,D4,A3,D6,A5,D2,D3,D4,D8,D7,D6,
{8}4xv2<6b[8:6],,,,,,,,,,E5h[8:6],,,,,,
{8}E6/E4,,,,2xp1[8:3],,,6,7xq8[8:3],,,3,2xp1[8:3],,,6,
{8}7xV15[8:3],,,3,2x,2,7,6/4,5h[8:1],2,5h[8:1],1,5h[8:1],8,6x-3b[8:1]/7x-2b[8:1],,
{8}6b/7b,,,,
1pp2[16:5]/5x,,,6-4qq3[16:7],7x,,,
7-1pp2[16:7],6x,,,6-4qq3[16:7],7x,,,
7,8x,8,3,5,1x,1x,6,4x,8x,5,6-1b[8:1]/7-3b[8:1],,
{8}6b/7b,,,,
1-3v2[16:5]/5x,,,6V42v3[16:7],7x,,,
7V13v2[16:7],6x,,,6V42v3[16:7],7x,,,
7,8x,8,2,5,1x,1x,7,4x,8x,5,6-1b[8:1]/7-4b[8:1],,
{8}6b/7b,,,,
{16}1-3v2[16:5]/5x,,,6,,,7-1pp2[16:7],,6x,,,5,,,
{16}6V42v3[16:7],,7x,,,8,,,7-1pp2[16:7],,6x,,,5,,,
{8}7,8x,8,3,5,2h[8:1],3,1h[8:1],4,8h[8:1],5,6z2[8:1]/7-3[8:1],,
{8},,,1,5,6,3,4,6,7,2,3,7,8,1,2,
{8}3v5[8:6]*>7[8:6],,,,,,,,,,E5h[8:6],,,,,,
{8}E6/E4,,,,3xpp1[8:3],,,7,6xqq8[8:3],,,2,3xpp1[8:3],,,7V15b[8:9],
{8}7h[8:12],,,,,,,,,,,,,,6-2b[8:1]/7^4b[8:1],,
{8}6b/7b/E7f,,,,
8>6[8:3]/7b,,,6<6[8:4],7b,,,
6<6[8:4],7b,,,6<4[8:3],7b,,,
7,8xb,8,3/7,5,1xb,1xb,6/2,4xb,8xb,5xb,6v1b[8:1]/7p3b[8:1],,
{8}6b/7b/E7f,,,,
8V24-6[8:3]/7b,,,6V82V46[8:4],7b,,,
6V82V46[8:4],7b,,,6V82-4[8:3],7b,,,
7,8xb,8,2/6,5,1xb,1xb,3/7,4xb,8xb,5xb,6z2b[8:1]/7p3b[8:1],,
{8}6b/7b/E7f,,,,
{16}8V24-6[8:3]/7b,,,5,,,6<6[8:4],,7b,,,8,,,
{16}6V82V46[8:4],,7b,,,8,,,6<4[8:3],,7b,,,8,,,
{8}7,8xb,8,3,5,2h[8:1],3,1h[8:1],4,8h[8:1],5,6-1b[8:1]/7s3b[8:1],,
{1}6xbqq5^8V25[4:7]/7xb/E7f,,7xqq8V24b[4:6],,
{8}6h[8:4],,,5qq8[4:3],4,,2,,,,,,1-4[8:1]*-7[8:1],,,,
{8}5h[8:4],,,,6hb[8:4],,,,7hb[8:4],,,,8bw4b[8:1],,,,
{8}2x/6xh[8:3],,,5,7,,1/8,,5/3h[8:3],,,4,2,,1/8,,
{8}5/6h[8:3],,,8,7,,2/5,,6b/5b,7bqq6^1[8:3],,,1bV35b[8:2],,,,
{8}2xh[8:3],,,4,3,,8/1,,4/7h[8:3],,,5,6,,8/1,,
{8}4/3h[8:3],,,1,2,,4/7,,7bqq8[8:4]*V14[8:4],,,,,,,,
{1}E5,
E
