&title=童話になったらいいのに
&artist=電ǂ鯨
&first=0
&lv_5=13+
&des= でんきまねきねこ
&clock_count=4
&inote_5=(190)
{1},,
{8}7h[4:3],,B8,,,,B3,,
{8}3h[2:1],,4,,5,6,,7,
{8}2h[4:3],,B1,,,,B6,,
{8}5h[8:2],,1,,26,37,4x/8x,,
{8}6h[4:1],,4,7,3h[4:1],,5,2,7,6,2,3,8h[4:1],,1,7,
2h[8:3],,1,8,7h[8:3],,8,1,
{8}2h[16:1],3h[16:1],4h[16:1],
5h[16:1],6x-2[8:1],,,,
{8}7h[4:2],,8,,1,3,2h[8:1],,
{8}3h[4:2],,4,,5,6,,6,
{8}2h[4:2],,1,1,8,6,7h[8:1],,
{4}2v4[8:1],7-3-5[8:1],{4}1w5[8:1],,
{8}2pp5[2:1],,2x,1,8,6,7,7,
{8}6pp1[2:1],,6x,,4,3,3,,
{8}7qq4[2:1],,7x,8,1,3,2,,
{16}3h[16:3],,4,,6h[16:3],,5,,2h[16:3],,1,,7,8,7,,
{2}6h[4:11],5hx[4:1],4h[4:1],3hx[4:1],2h[4:1],1hx[4:1],
{8}8,7,,8,1h[4:1],,6,,
{2}3h[4:11],4hx[4:1],5h[4:1],6hx[4:1],7h[4:1],8hx[4:1],
{8}1,2,3,4,5,,7h[8:1],,
{4}6h[4:3],7,8,1,
2h[4:3],3,4,5,
{4}3h[4:3],2,1,8,
7-4[8:1],1,2-5[8:1],8,
{8}1-5[8:1],38,1x,,8-4[8:1],61,8x,,5-1[8:1],74,5x,,4-8[8:1],25,4x,,
{4}7^4[4:1],4^1[4:1],1^6[4:1],6>2[4:1],
2<6[4:1],6>2[4:1],2-6[8:1],,
{8}5x/7x,6,6,6,58,6,6,6,{8}42,3,3,3,41,3,3,3,
{8}57,6,24,3,15,7,84,2,
{16}7x,8,7,8,6,4,5,3,8b-4[8:1],,,,2b,,,,
{8}6^8[8:1],,6,5,1-5[8:1],,1,2,
{8}6^8[8:1],,6,5,1-5[8:1],,1,2,
{8}6^8[8:1],,6,5,1V75[8:1],,1,3x,
{16}3x,,4,3,6x,,5,6,2x,,1,2,7x,,7,,
{8}3^1[8:1],,3,4,8-4[8:1],,8,7,
{8}3^1[8:1],,3,4,8-4[8:1],,8,7,
{8}3^1[8:1],,3,4,8V24[8:1],,8,6x,
{16}6x,,5,6,3x,,4,3,7x,,8,7,2x,,1,2,
{8}1b-6[8:1],,1x,2,1-4[8:1],,1x,8,
{8}1<5[8:1],,1x,2,1>5[8:1],,1x,8,
{8}6h[4:1],,4,8,{8}3h[4:1],,5,1,
{8}6,57,3,24,{16}5,3,6,4,5,3,6,4,
{8}8-3[8:1],,8x/6,7,8-5[8:1],,8/2x,1,
{8}8>4[8:1],,8x/6,7,8<4[8:1],,8/2x,1,
{8}3h[4:1],,5,1,{8}6,6,4,8,
{8}3,42,6,75,{16}4,5,4,5,4,5,4,,
{1}1h[1:2]/Ch[1:1],,5h[1:1],{4}E8,E2,E4,E6,
{8}7qq4[2:1],,8,,1,3,2h[8:1],,
{8}3qq8[2:1],,4,,5,6,6,7,
{8}2pp5[2:1],,1,1,8,6,7h[8:1],,
{16}6h[16:3],,5,,3h[16:3],,4,,7h[16:3],,8,,2,1,2,,
{2}4<8>4q8q4[4:8],,
,,
4<8[2:1],8w4[2:1],,{8}2h[8:1],,2,,
{2}5>1<5p1p5[4:8],,
,,
5V31[2:1],1w5[2:1],,{8}7h[8:1],,86,,
{2}4q8q4[2:2],,4<8>4[2:2],
,
4<8[2:1],8w4[2:1],,{8}2,2,13,,
{8}8-4[8:1],61,8x,,1-5[8:1],38,1x,,4-8[8:1],25,4x,,5-1[8:1],74,5x,,
{4}2^5[4:1],5^8[4:1],8^3[4:1],3<7[4:1],
7>3[4:1],3<7[4:1],7w3[8:1],,
{8}4x/2x,3,3,3,42,3,3,3,{8}57,6,6,6,57,6,6,6,
{8}42,3,75,6,84,2,15,{32}6x,7x,8x,1x,
{1}2xw6[2:1],
{8}3qq6[2:1],,
{4}5,6pp3[2:1],1,3qq6[2:1],
{4}5,6pp3[2:1],1,3qq6[2:1],
{4}5,6,,
{8}57,1,24,8,1h[4:1],,5,,
{4}6-8-4[2:1],2,2-4-8[2:1],6,
{4}6-8-5[2:1],2,2-4-1[2:1],6,
{4}6-8-4[2:1],2,2,6,
{8}42,8,75,1,8h[4:1],,1,1,
{8}6h[4:1],,4,7,3h[4:1],,5,2,
{8}7h[4:1],,1,6,2h[4:1],,8,3,
{8}6h[4:1],,4,7,3h[4:1],,5,2,
{8}7h[4:1],,1,6,2,{24}8,1,8,{16}7,,2,,
{4}
7/2-5[8:1],2/7-4[8:1],7/1-5[8:1],1/8-4[8:1],
8/1-5[8:1],1/7-4[8:1],7/2-5[8:1],2/7,
{16}7x,5h,6h,5h,8x,4h,5h,4h,1x,3h,4h,3h,2b,,,,
{8}8^3[8:1],,85,6,8V64[8:1],,83,2,
{8}8^3[8:1],1,85,6,8V64[8:1],,83,2,
{8}8^3[8:1],,85,6,8V64[8:1],,83,2,
{16}7,,5,6,2,,4,3,8,1,8,1,8,1,8,,
{8}1^6[8:1],,14,3,1V35[8:1],,16,7,
{8}1^6[8:1],8,14,3,1V35[8:1],,16,7,
{8}1^6[8:1],,14,3,1V35[8:1],2,16,7,
{16}2,,4,3,7,,5,6,1,8,1,8,1,1,1,1,
1b-5[2:3],,,,,,,,,,,,,,,,{24},,,,,,,,,,,,,,,,,,
{32}7x,8x,1x,2x,,,,,
{8}8^3[8:1],,85,6,8V64[8:1],,83,2,
{16}7,,5,6,2,,4,3,6,4,5,3,6,4,5,,
{8}8^3[8:1],,85,6,8V64[8:1],,83,2,
{16}7h[16:3],,,6,2h[8:1],,4h[8:1],,,4,5,3,6,4,5,,
{8}1^6[8:1],,14,3,1V35[8:1],,16,7,
{16}2,,4,3,7,,5,6,3w7[8:1],,,,3b,,,,
7x,8,6,1,7,8,6,2,7x,8,7,8,7,8,6,1,
5x,2,5,2,6,4,7,4,1x,2,8,3,7,4,6,5,
7x,2,7,2,7,2,7,2,8x,5,6,1,4,3,7,2,
8,8,2,,1,1,7,,
7,1,8,2,7,1,8,1,
2x,1,3,8,2,1,3,7,2x,1,2,1,2,1,3,8,
4x,7,4,7,3,5,2,5,8x,7,1,6,2,5,3,4,
2x,7,2,7,2,7,2,7,1x,4,3,8,5,6,2,7,
1,1,7,,8,8,2,,
2,8,1,7,2w6[8:1],8,1,8,
{8}2>2[2:7]/Cf,,,,C,,,,
{8},,,,C,,,,
,,,,C,,,,,,,,C,,,,
{4}E7/E8,,B4/B5,,E2/E3,,B1/B8,C,
5h[4:3],,1h[2:2],,B1,C,B5f,
E
