&title=惊涛落日(Official Vers.)
&artist=Platix_Zhang
&first=0
&des=那个不起眼的山坡上,矗立着一个日晷阵列。
&lv_5=13+
&inote_5=(120)
{1},
{4}8qq5[4:3],,{8},{16}4,{32}3,2,{4}1pp6[4:3],
{4},{16}7,6,,,{4}5h[4:2],,
{4}7>2[4:1],,{16},5<8[4:1],,,,,,,
{16}3,2,{32}1,2,3,4,{16}1qq6[4:3]/5>2[8:1],,,5,,,,,3,,,3,
{16},4,,4,,4,3,2,{32}1,2,3,4,5,6,7,8,1V75[16:3]/5V31[16:3],26,37,48,15,,,,
{1}1bq3[4:6]/5bq7[4:6],
{1},
{8}1<6[8:1],2,3,4>1[8:1],5,6,7,7,
{8}8>3[8:1],7,6,5<8[8:1],4,3,2,2,
{8}1-6[8:1],2,3,4-1[8:1],5,6-2[8:1],7,7,
{8}8-3[8:1],7,6,5-8[8:1],4,3-7[8:1],2,1,
{8}2-6[8:1],3,4,5-1[8:1],7-3[8:1],8-4[8:1],7,8,
{8}7-3[8:1],6,5,4-8[8:1],2-6[8:1],1-5[8:1],2>2[4:2],1,
{2},{16}5h[16:3],,,3h[16:3],,,1h[16:2],,
{16}7bpp2[4:2],,,6,,,6h[8:1],,,,5,,5-1[8:1],,,,
{8}2,3,4h[4:1],,6h[4:1],,8h[4:1],,
{16}2qq7[4:2],,,3,,,3h[8:1],,,,4,,4-8[8:1],,,,
{8}7,6,5h[4:1],,{16}3h[16:3],,,8h[16:5],,,1,,
{2}2b-5[8:1]*-7[8:1],{16}6h[16:3],,,1h[16:5],,,8,,
{4}7-4[8:1]*-2[8:1],7>6[8:3]
,7/3v8[8:1],,
{2}1<2[8:5]/7h[8:4],{8},8,7,6,
{8}5h[4:2],1,8,7,6-3[8:1],7,8,1,
{16}2bqq5[4:2],,,3,,,3h[8:1],,,,4,,4-8[8:1],,,,
{8}7,6,5h[4:1],4,3h[8:3],2,1,8,
{8}7pp4[4:2]/4h[8:3],,,,3h[4:3],,,,
{8}5,6,7h[8:3],8,1,2,3V16[4:1]/7V52[4:1],4/8,
{8}3b/7b,,,{16}48,15,2>7[4:1]/6h[16:3],,,2,,,8,,
{8}8<2[8:3],,,2<4[8:3],,,4qq8[4:3]*q7[4:3],,
{1},
{8}1,2,37,48,{24}15,8,7,6,5,4,8,1,2,3,4,5,
{2}6/1qq5[4:2],3h[4:4],
{8}6,,7,,8,8,1/7h[4:1],,
{8}8pp4[4:2],,5,6,{4}7h[4:4],,
{8}5,{32},,4,3,{4}2,{16}1h[16:3],,,2h[16:3],,,3h[8:1],,
{8}4pp8[4:2],,3,2,1h[8:1],,2h[8:1],,
{4}1-5[8:1],8-4[8:1],7-3[8:1],6-2[8:1],
{8}5qq1[4:2],,8,7,6h[8:1],,7,8,
{8}1/7h[4:2],{32},,2,3,{8}4,,5,46,35,24,
{8}1h[4:1]/3<1[8:5],,,1,2,3,4,5qq2[4:2],
{8},8,,1,1,8,7,6,
{8}5h[4:2],1,8,7,6h[4:1],,5v2[8:1]*-8[8:1],,
{8}5,,1h[4:1],,{16}7h[16:3],,,5h[16:9],,,1,,
{4}1>1[8:3],,2V48[4:1],8-6[8:1],
{8}5h[4:2],,,1,{16}2q3[8:3],,,2,,,8,,
{1}8pp4[4:6]*qq4[4:6],,
{8}3,2,1h[4:3],4,3,2,8,7,
{8}6,7,8h[4:3],5,6,7,1,2,
{8}3,25,1h[4:3]/6,5,4,3,8,7,
(60)
{16}6,74,8h[16:1]/3,1,2z6[8:1]/7s3[8:1],36,2h[8:1]/7h[8:1],,
{16},,,,{32}1V35[32:3]/8V24[32:3],,,4V68[32:3]/5V71[32:3],,,1s5[16:5]/8s4[16:5],,
{2}1b/8b,
{8},3h[16:1]/6h[16:1],{16}2>8[16:3]/7<1[16:3],36,45,1s5[16:7]/8z4[16:7],
{2}7b/2b,{4},{16}5<3[16:3],4,3,2,
{4}1h[4:1]/5b,{32}4h[32:3],,,5h[32:3],,,6h[16:5],,
{8}8s4[8:1],4z8[8:1]*>5[16:7],8b>5[16:5],,
{2},{4}2h[8:1]/7h[8:1],{32}1V35[32:3]/8V64[32:3],,,4V28[32:3]/5V71[32:3],,,1q4[16:5]/8p5[16:5],,
{2}1b/8b,
{8},2h[16:1]/6h[16:1],{64}2-6[16:1]/6-2[16:1],3,4,5,6,7,8,1,26,37,48,51,{16}2pp5[16:7]/6pp1[16:7],
{2}2b/6b,{4},{32}5h[32:3]/4<3[64:7],,,3h[32:3],,,7h[64:15],,
{8}4b,{64}4,5,6,,8,1,2,3,{32}4h[32:3]/5>6[64:7],,,6h[32:3],,,2h[64:15],,
{8}5b,{64}5,4,3,,1,8,7,6,{16}5b<4[4:1]/4b>5[4:1],,,1b/8b,
{1}4bw8[4:3]/5bw1[4:3],
(120)
{2},{16}4h[16:3],,,6h[16:3],,,{32}1,2,3,4,
{2}5>7[4:1],{16}5h[16:3],,,3h[16:3],,,8h[8:1],,
{4}6V82[4:1],2V46[4:1],6pp3[4:3],,
{2},{16}5h[16:3],,,3h[16:5],,,2,,
{16}1bp6[4:2],,,3,,,3h[8:1],,,,4,,4-8[8:1],,,,
{8}7,6,5h[4:1],,3h[4:1],,1h[4:1],,
{16}8q3[4:2],,,6,,,6h[8:1],,,,5,,5-1[8:1],,,,
{8}2h[4:1],,4h[4:1],,{16}6h[16:3],,,1h[16:5],,,8,,
{16}8bq3[4:2],,,6,,,6h[8:1],,,,5,,5-1[8:1],,,,
{8}2,3,4h[4:1],,6h[4:1],,8h[4:1],,
{16}1p6[4:2],,,3,,,3h[8:1],,,,4,,4-8[8:1],,3,,
{2}2h[1:1],6h[2:1],
{2},{4},{8},{16},{32}7,8,
{1}1w5[4:9]*-5[4:9],
