&title=はぐ
&artist=MIMI feat. 初音ミク・可不
&first=0
&des_5=凝雪ユキ・Kuzo
&lv_5=13+
&des=凝雪ユキ・Kuzo
&clock_count=4
&inote_5=(120){1},
{24}1,,3,4,,8,7x,,5,6,,,4/7,,,3/6,,,2x/5x,,,1,,,
{24}8,,6,5,,1,2x,,4,3,,,5/2,,,6/3,,,7x/4x,,,8,,,
{24}1,,2,4,,1,7x,,4,6,,,5,,,2/4,,,1x/8x,,,7,,,
{24}8,,7,5,,8,2x,,5,3,,,4,,,7/5,,,8xh[8:1]/1xh[8:1],,,,,,
{8}2/5,3,4/E7`B6,3,2/5,3,4h[1:0]/E7`B6,,
{8}7/4,6,5/E3`B3,6,7/4,6,5h[1:0]/E3`B3,,
{8}2/5,3,4/B6`B5,3,2/5,3,4h[1:0]/B6`B5,,
{8}7/4,6,5/B3`B4,6,7/4,6,5h[1:0]/B3`B4,,
{8}2/5,3,4/E7`B6,3,2/5,3,4/B6`B5,3,
{8}7/4,6,5/E3`B3,6,7/4,6,5/B3`B4,6,
{8}3/5,2,7/E3`B3,6,3/5,2,7/B3`B4,6,
{8}6/4,7,2/E7`B6,3,6/4,7,2/B6`B5,3,
{8}7/4,6,5>2[4:1],5b,E6,E7,E8,,8p3[8:3],,,,B2/B1,,1,,
{8}1qq6[2:1],,,,B7/B8/E8,,,,5qq2[2:1],,,,7b,8b,1b,,
{24}2h[8:1],,,8,,,1,,5,3,,7,1-5[8:1],,,5qq3[8:1],,,1,,,E7/B6,,,
{24}7h[8:1],,,1,,,8,,4,6,,2,8-4[8:1],,,4pp6[8:1],,,8,,,E3/B3,,,
{16}2,4,3,,6-8-4[4:1],,1/5,,6,,4,,2,,1,,
{8}2q7[8:1],2,6>3[8:1],6,1-5[8:1],1,8,8h[8:1],
{24}A2h[24:5],,,,,C,
{24},,,5,,6,A7h[24:5],,,,,B2,,,3,,5,4,
{8}6x,3x/B7/E7b/B6,7x/B2/E3b/B3,1x/B5/B6/E6b,
{8}8x/B3/B4/E4bf,,4h[8:1],7,
{8}1-5[8:1]/8,2,1/8-4[8:1],7,2-6[8:1]/8,3,2/8,7,
{24}8,,3,4,,2,8,,5,6,,1,7pp1<5[16:3],,3,5,,,B3/E3,,,,,,
{24}1,,6,5,,7,1,,4,3,,8,1pp3[8:1]*qq7[8:1],,,2x/8x,,,A1,,,,,,
{24}2,,2,1,,3,4,,1,7,,5,6<1[8:1]*>3[8:1],,,6,,,{4}A6,
{8}8-4[8:1]/1,7,8/1-5[8:1],2,7-3[8:1]/1,6,7/1,2,
{24}1,,6,5,,7,1,,4,3,,8,2qq8>4[16:3],,6,4,,,B6/E7,,,,,,
{24}8,,3,4,,2,8,,5,6,,1,8qq6[8:1]*pp2[8:1],,,7x/1x,,,A8,,,,,,
{24}7,,7,8,,6,5,,8,2,,4,{8}3<6[8:1],3,7p2[8:1],7,
{4}1h[8:1],1h[8:1]/B4,1h[8:1],1h[8:1]/B5,
{4}2h[8:1],2h[8:1]/B6,2h[8:1],2h[8:1]/B7,
{4}3h[8:1],3h[8:1]/E8,3h[8:1],3h[8:1]/E7,
{4}4h[8:1],4h[8:1]/E6,4h[8:1],4h[8:1]/E5,
{8}7-3[8:1],8-4[8:1],7,8,E6,C,E2,,
{16}5,3,4-8[8:1],,4,,C,,1b<6[8:1],,2b,,3b,,,,
{8}2-6[8:1],1-5[8:1],2,1,E4,C,E8,,
{16}4,6,5-1[8:1],,5,,C,,8b>3[8:1],,7b,,6b,,,,
{8}4/6,7,8<5[8:1]/B4/E5,,3,2,1xqq3[4:1],,
{8}1/5,,B6/B7,,8h[8:1],3h[8:1],E5,2,
{8}3/4h[8:1],,2x>5[4:1],,E6,E7,E8,,
{4}8>3[4:1],3<6[4:1],6<1[4:1],1w5b[2:1],{1},
{16}3/5,,2,4,,6,5,6,{24}4/7,,5,6,,4,5,,,3/4,,,
{16}2h[8:1],,3,3h[8:1],,4,4h[8:1],,7,,6,6h[8:1],,5,5h[8:1],,
{8}B3/E4,B7/E8,B1/B2,B5/B6,{24}2/4,,1,8,,5,7-3[8:1],,,4/6,,,
{16}A7,,2,2,,1,1,,2/8,,7,5,,3,4,,
{16}2/5,,6,5,{24}6,,3,4,,3,6,,5,7,,3,4,,,2,,,
{16}2h[8:1],,7x,6x,5x,,5h[8:1],,1x,2x,3x,,3h[8:1],,5,,
{24}2/4,,2,8,,8,2b,3,4,7b,6,5,3,,3,4,,4,2,,2,8,,,
{4}7b<6-4-2<1v7[8:13]/8h[8:1],1h[8:1],2h[8:1],3h[8:1],
{4}3xh[8:1],3h[8:1],3h[8:1],3h[8:1],
{16}4,6,3,3,5qq5pp5[8:3],3,6,6,
{8}5,,8h[8:1],,
{16}8,5,6,6,1,4,3,3,5b/4b/,,6b/3b,,7b/2b,,8,1,
{4}2>7[2:1],C,7p2[2:1],C,2<7[2:1],C,E7,E3,
{16}A6h[4:1],,,,A3h[4:1],,,,E7,,E6,,E5,,,,
{16}4,5,4,5,3,6,3,6,8-4[8:1]/1-5[8:1],,7/2,,8b/1b,,,,
{24}2/4,,1,8,,5,7<4[8:1],,1,8,,,2-6[8:1]/7,,,3,,,2/8,,,7,,,
{24}7,,7,8,,5,3,,1,2,,7,5<8[8:1]*>2[8:1],,,4/6,,,5b,,,,,,
{24}3,,3,4,,2,1,,3,5,,2,8-3[8:1]*-5[8:1],,,2/6,,,8b,,,,,,
{24}4,,6,5,,7,1-3[8:1],,4,3-7[8:1],,8,1,,,,,,6h[8:1],,,,,,
{24}7/5,,8,1,,4,2>5[8:1],,8,1,,,7-3[8:1]/2,,,6,,,7/1,,,2,,,
{24}2,,2,1,,4,6,,8,7,,2,4>1[8:1]*<7[8:1],,,5/3,,,4b,,,,,,
{24}6,,6,5,,7,8,,6,4,,7,1-6[8:1]*-4[8:1],,,7/3,,,1b,,,,,,
{24}5,,3,4,,2,8-6[8:1],,5,6-2[8:1],,1,8,,,,,,3h[8:1],,,,,,
{24}3,,3,1,,1,8>3[8:1],,8,6,,,8b<5[8:1],,,,,,8b,,,,,,
{24}3,,3,4,,4,2,,2,8,,8,1bv4[8:1]*v6[8:1],,,3/7,,,1b,,,,,,
{24}2,,2,5,,5,4,,4,7,,7,1h[8:1],,,B6,,,2/4,,,3,5,4,
{24}6h[8:1],,,4,6,3,5h[8:1],,,4,,,2<7[8:1]/5,,,1,,,2/4,,,,,,
{24}6,,6,8,,8,1<6[8:1],,1,3,,,1b>4[8:1],,,,,,1b,,,,,,
{24}6,,6,5,,5,7,,7,1,,1,8bv5[8:1]*v3[8:1],,,6/2,,,8b,,,,,,
{24}7,,7,4,,4,5,,5,2,,2,8h[8:1],,,B3,,,7/5,,,6,4,5,
{24}3h[8:1],,,5,3,6,4h[8:1],,,5,,,7>2[8:1]/4,,,8,,,7/5-1b[8:1],,,,,,
{1}5b/7,2h[1:1],E5h[8:17],
