&title=Winter↑ Cube↓
&artist=MoLNxuE
&first=0.01
&ChartEditor=MaiCreator
&lv_5=13.4
&des_5=したば_ReD
&inote_5=(104){4},{16},,,,,6h[2:1],,,,,,,,2pp5[4:1],
,,,,,,,7h[2:1],,,,,,,,5qq1[4:1],
,,,,,,,8h[2:1],,,,,,,,1q3[4:1],
,,,,,,,1h[2:1],,,,,,,,3-7[8:1],
,,,3b,,,,7-3[8:1],,6,,5,,4,
,3-8[8:1],,2,,1,,,,2-6[8:1],,3,,4,,5,
,6-1[8:1],,7,,8,,,,7qq4[8:3],,6,,5,,4-8[16:3],
,3,,2,,1,,,,2pp5[8:3],,3,,4,,5-1[16:3],
,6,,7,,8,,,,7xV15[4:1],,6,,7,,3V51[4:1],
,2x,,3,,7,,,,2xV84[4:1],,3,,2,,6V48[4:1],
,7x,,6,,2,,,,7x-5[8:1],,7,,1x-4[8:1],,1,
,8x-5[8:1],,8,,2x-4[8:1],,2,,8x-6[8:1],,1x-3[8:1],,8x-4[8:1],,1x-5[8:1],
,8xw4[8:1],,1x,,8bx,,,,7-5[8:1],,7,,A7/1-3[8:1],,1,
,A1/8-5[8:1]*-3[8:1],,8,,A8,,,,2-4[8:1],,2,,A2/8-6[8:1],,8,
,A8/1-4[8:1]*-6[8:1],,1,,A1,,,,7-5[8:1],,7,,A7/3-1[8:1],,3,
,A3/7w3[8:1],,7,,A7,,,,6-8[8:1],,6,,A6/2-4[8:1],,2,
,A2/6w2[8:1],,6,,A6,,,,7-5[8:1],,3-1[8:1],,7-1[8:1],,3-5[8:1],
,7-3[8:1],,3,,7,,,,2-4[8:1],,6-8[8:1],,2-8[8:1],,6-4[8:1],
,2-6[8:1],,6,,2,,,,7-5[8:1],,3-1[8:1],,7-1[8:1],,3-5[8:1],
,7w3[8:1],,3,,7,,,,2-4[8:1],,6-8[8:1],,2-8[8:1],,6-4[8:1],
,2w6[8:1],,6,,2b,,,,7v6[8:1],,6qq8[4:1],,A7,,,,2v3[8:1],
,3pp1[4:1],,A2,,,,6v8[8:1],,8qq5[4:1],,A6,,,,3v1[8:1],
,1pp4[4:1],,A3,,,,7qq5[8:1],,5q8[4:1],,A7,,,,2pp4[8:1],
,4p1[4:1],,A2,,,,8V62[8:1],,8,{4},{16}1,
7,3,5,2,8,4,6,3,7<4[8:1],,4-1[8:1],,A7,,,,2>5[8:1],
,5-8[8:1],,A2,,,,6<1[8:1],,1-4[8:1],,A6,,,,3>8[8:1],
,8-5[8:1],,A3,,,,7-1[8:1],,6,,5-7[8:1],,4,
,3-5[8:1],,2,,1-3[8:1],,8,,7-5[8:1],,7-3[8:1],,7-4[8:1],,7-2[8:1],
,7-3[8:1],,7-1[8:1],,7w3[8:1],,7,,7b,,,,,,,,Ch[2:1],
,,,,,,,5,,5/1,,5/1,,6/2,
,6/2,,7/3,,7/3,,8/4,,8/4>8[4:1],,,,8V64[4:1],,,,4>8[4:1],
,,,8V24[4:1],,,,4<8[4:1],,,,8<4[4:1],,,,4V28[4:1],
,,,,,,,6V84[4:1],,,,4V61[4:1],,,,1V37[4:1],
,,,7V14[4:1],,,,4V61[4:1],,,,1V36[4:1],,,,,,,,,,,,7<4[8:1],
{8}8,{16}8,7,,1,
,2>5[8:1],{8}1,{16}1,2,,8,,7p6[4:1],{8}8,{16}8,7,,1/C,
,2q3[4:1],{8}1,{16}1,2,,8/C,,6V84[4:1],{8}5,{16}5,6,,4,
,3V15[4:1],{8}4,{16}4,3,,5,,3q5[4:1],{8}3,{16}8,8,,7/C,
,6p4[4:1],{8}6,{16}1,1,,2/C,,2V84[4:1],{8}2,{16}7,7,,6,
,5V37[4:1],{8}5,{16}3,3,,2,,1p8[4:1],{8}1,{16}7,7,,6/C,
,5p4[4:1],{8}5,{16}3,3,,2/C,,2qq8>4[0.4327##0.5769],{8}6,{16}6,7,,7,
,7pp1<5[0.4327##0.5769],{8}3,{16}3,2,,2,,1pp4[4:1],{8}1,{16}5,6,,7/B2/B3/E3,
,8qq5[4:1],{8}8,{16}4,3,,2/B7/B6/E7,,1xV73[4:1],{8}1,{16}5,5,,6,
,7xV15[4:1],{8}7,{16}3,3,,2,,1xq3[4:1],{8}1,{16}6,6,,7/C,
,8xp6[4:1],{8}8,{16}3,3,,2/C,,1x-6[8:1],,,,7x-4[8:1],,,,5x-2[8:1],
,,,3x-8[8:1],,,,5x-7[8:1],,5x-3[8:1],,5x-8[8:1],,5x-2[8:1],
,5xw1[8:1]*-1[8:1],,5x,,5x,,,,7xV51[16:3],{8},{16}7,7,,2/C,
,2xV48[16:3],{8},{16}2,2,,7/C,,6xV84[4:1],{8},{16}6,6,,2/C,
,2xq3<6[4:1],{8},{16}4,5,6,7,8,1xV72[16:3],{8},{16}1,1,,4/B8,
,5xV36[16:3],{8},{16}5,5,,8/B4,,1xV38[16:3],{8},{16}1,1,,5/B2,
,7x<1[16:3],{8},{16}7,7,,B1/B2/E2,,3x>8>3[4:1],{8},{16}3,3,,6/A8,
,6x<1<6[4:1],{8},{16}6,6,,3/A1,,2x>5>2[4:1],{8},{16}2,2,,7/A5,
,7x<4pp5[4:1],{8},{16}4,3,2,1,8,7x>2<7[4:1],{8},{16}7,7,,4/A2,
,3x<6>3[4:1],{8},{16}3,3,,8/A6,,8xqq5[4:1],{8},{16}8,8,,2/E7,
,1xs5[16:3],{8},{16}1,1,,,,8,1,7,2,8,1,7,
2q5[4:1],8,{8},{16}7,{8},{16}6,,7,8,6,1,7,8,6,
1s5[16:3],7,{8},{16}1,{8},{16}7,,1,8,2,7,1,8,2,
7p4[4:1],1,{8},{16}2,{8},{16}3,,2,1,3,8,2,1,3,
8z4[16:3],2,{8},{16}8,{8},{16}2,,8x,1,6x,3,7x,2,5x,
4qq1[4:1],8x,{8},{16}7,{8},{16}6,,5x,4,7x,2,6x,3,8x,
1s5[16:3],5x,{8},{16}1,{8},{16}6,,7x,1,5x,3,8x,2,6x,
4p2[4:1],7x,{8},{16}6,{8},{16}5,,4x,3,5x,4,6x,5,7x,
6z2[16:3],8x,{8},{16}6,{8},{16}7,,8,7,6,5,4p1[4:1],,4,
,4h[4:1],,C,,A1,,,,1,2,3,4,5q8[4:1],,5,
,5h[4:1],,,,A8,,,,7,8,1,2,3qq8[4:1],,3,
,3h[4:1],,E2,,A8,,,,2,1,8,7,6pp1[4:1],,6,
,6h[4:1],,,,A1,,,,E8/B8/B1/E2/B2/B3/E4/B4/B5/E6/B6/B7,
E
