&title=Breakcore WTF!?
&artist=LeaF
&first=0
&des=真拿你们没办法,坐好喽
&clock_count=4
&lv_5=13+?
&des_5=
&inote_5=(250)
{1},,
{16}
1-5b[8:1],,,,8b/1b,,,,,,,,,,,,
{16}
7-5v4-2[2:1],,,,,,,,,,,,E1/D1f/A8/A1,,,,
{16}
3xh[8:7]/4xh[4:3],,,,,,,,,,,,,,6h[8:7],,
{16}
5xh[4:3],,,,,,,,,,,,,,,,
{16}
7/4,,7/4,,7/4,,7/4,,,,2/6,,2-7[8:1]/6-3[8:1],,,,
{16}
6/2-5>4z8[16:9],,,,,,,,A6,,,,,,,,
{16}
7h[4:1]/1h[4:1],,,,,,,,6h[4:1]/5h[4:1],,,,,,,,
{16}
7h[4:1]/1h[4:1],,,,,,,,3h[4:1]/4h[4:1],,,,,,,,
{16}
2/1,,,,2,,,,4/5,,,,4,,,,
{16}
5/6,,,,5/7,,,,5/A8f,,,,,,,,
{16}
3/4,,,,2,,,,5/6,,,,2,,,,
{16}
3/4,,,,1/8,,,,2/7,,,,,,,,
{16}
3/4,,,,5,,4,,6,,,,6,,,,
{16}
E2f/B2,,,,E8f/B7,,,,E2f/B2,,,,B7/E8,,,,
{16}
7x-4-7[2:1]/3xh[4:3],,,,,,,,,,,,,,,,
{32}
A3,D4,,,,,,,A3,D4,,,,,,,A3,D4,,,,,,,A3,D4,,,,,,,
{16}
6h[4:1],,,,4,,4,,5h[4:1],,,,3,,3,,
{16}
4h[4:1],,,,2-7b[8:1],,,,A2f,,,,,,,,
{16}
6-8[8:1],,,,,,,,4h[16:1],,4h[16:1],,4,,,,
{16}
5-8[8:1]*-1[8:1],,,,,,,,2/7,,,,B6/Cf/B3,,,,
{16}
3,,,,6,,5,,6,,,,4/7,,,,
{24}
3x,4x,5x,6x,7x,8x,1x,2x,3x,4x,5x,6x,7xqq5[4:1],8xq5[24:5],1x,2x,3x,4x,,,,,,,
{16}
A5f,,,,,,,,6xh[4:5],,,,,,,,
{16}
,,,,,,,,,,,,C,,,,
{16}
5h[8:3],,,,3,,3h[8:3],,,,4,,4,,,,
{16}
3>1-4[2:1]/4pp4[2:1],,,,,,,,,,,,,,,,
{16}
6>3[2:1],,,,2,,,,2,,,,2,,,,
{16}
2q7[2:1],,,,5,,,,5,,,,5,,,,
{16}
6x-3[8:1]*>3[8:1],,,,,,,,2xv7[8:1]/7xp2[8:1],,,,,,,,
{16}
E6,,,,E3,,,,Chf[4:1],,,,,,,,
{16}
3-8[8:1]/4-8[8:1],,,,,,,,7,,7,,5/6,,,,
{16}
3/5,,4,,5/7,,6,,5/4z8[16:3],,5/4,,,,,,
{16}
7h[2:1],,,,1,,,,5,,5h[8:3],,8,,,,
{16}
7,6,5,4,1,2,3,4,6-8[8:1],,6,,,,,,
{16}
1b>2v3<4[2:1]*-5<8[2:1],,,,,,,,,,,,,,,,
{16}
7,,5,,6,,6,,3-6[8:1],,4,,3,,,,
{16}
7,,7,,5,,5,,6,,6,,4h[4:1],,,,
{16}
E3,,,,5w1[8:1],,,,,,,,,,,,
{16}
2,,4,,4,,1,,6,,6,,3h[4:1],,,,
{16}
7,6,5,4,2,3,4,5,7-1[8:1],,7,,,,,,
{16}
2b-5[8:1]*-4[8:1],,,,,,,,7,,5,,6h[4:1],,,,
{16}
4,3,2,1,4,5,6,7,1<7[8:1],,1,,4w8[8:1],,,,
{16}
Cf,,,,,,,,E7,,B6,,B2,,E3,,
{16}
8,7,6,5,1,2,3,4,6>4[8:1],,6,,1w5[8:1],,,,
{16}
1<2[4:3]/Cf/B7/B3/A7/A3,,,,,,,,,,,,,,,,
{16}
5x-8[4:1],,,,,,,,,,,,,,,,
{16}
B7hf[4:3]/1xb,,,,E7hf[8:5]/2xb,,,,B6hf[2:1]/3xb,,,,4xb,,,,
{16}
B3h[1:1],,,A3h[16:13],,,E4h[8:5],,7xb,,7xb,,B8h[4:1]/A8hf[4:1]/E8h[4:1],,,,
{16}
,,,,,,,,,,,,,,,,
{16}
8-4[8:1],,,,,,,,,,,,,,,,
{16}
7x,,6x,,7x,,6x,,7x,6x,,6x,7x,,7x,,
{16}
6x,,7x,6x,7x,,6x,,7x/6x-4[8:1],,,,8b,,,,
{16}
7x,,6x,7x,6x,,7x,,6x,7x,,7x,6x,,6x,,
{16}
7x,,6x,7x,6x,,7x,,6x-3[8:1]/7x,,,,1b,,,,
{16}
7xh[8:1],,6xh[8:1],,7xh[8:1],,6xh[8:1],,7x,6x,,6x,7x,,7x,,
{16}
6xh[8:1],,7x,6x,7x,,6x,,7x/6x-4[8:1],,,,8b,,,,
{16}
7x,,6x,7x,6x,,7x,,6x,7x,,7x,6x,,6x,,
{16}
Chf[1:1]/B2/E3/B3,,,,,,,,,,,,,,,,
{16}
8xpp2pp4pp6pp8[2:3],,,,,,,,,,,,,,,,
{16}
3xh[4:1],,,,,,,,2xh[4:1],,,,,,,,
{16}
1xpp3pp5[2:1],,,,,,,,6xh[2:1],,,,,,,,
{16}
4,,,,3,,,,2h[2:1],,,,5,,5,,
{16}
6bv5V71[2:1],,,,,,,,,,,,,,,,
{16}
3,,3,,4h[8:1],,2,,2,,6h[8:1],,5,4,3,2,
{16}
1bqq8>4[2:1],,,,,,,,,,,,,,,,
{16}
E5/B5/7x,,,1x/E4/A3/D4,,,Chf[8:1],,,,,,,,,,
{16}
1bp5[4:1]/8b<2[2:1],,,,,,,,,,,,,,,,
{16}
7-5[8:1],,8,,7,,,,2-4[8:1],,1,,2,,,,
{16}
6bpp5[2:1]/5b>7[2:1],,,,,,,,,,,,,,,,
{16}
1>4[8:1]/4,,,,1/8<5[8:1],,,,5/8,,,,3,,3,,
{16}
5b-7<6-8[2:1]/4b-2>3-1[2:1],,,,,,,,,,,,,,,,
{16}
7,,7,,2h[8:1],,5,,5,,4h[8:1],,6,7,8,1,
{16}
2bv5[4:1]*v4[4:1],,,,,,,,,,,,3/6,,,,
{16}
E6h[1:1]/B5h[1:1]/B6h[1:1]/A1h[1:1]/E2h[1:1]/B1h[1:1],,,,,,,,,,,,,,,,
{16}
B2/B3/E4/A4/A5/E5/D5f,,,,,,,,,,,,,,,,
{16}
,,,,,,,,,,,,2b-4[8:1]/7b-5[8:1],,,,
{16}
2b/7b,,,,,,A8/D1/E1/A1/B8/B1,,,,,,6x-3[2:1],,7x,,
{16}
6x,,,,E8,,,,E1,,,,E2,,,,
{16}
4x-2[2:1],,,,5,,,,5,,,,5,,,,
{16}
5x-7[2:1],,,,4,,,,4,,,,4,,,,
{16}
3x,,7,,3,,7,,3x,,7,,3,,7,,
{16}
2x,,8,,2x,,8,,2x,,8,,2x,,8,,
{16}
1bx,1bx,1bx,1bx,1bx,1bx,1bx,1bx,1bx,1bx,1bx,1bx,1bx/B1hf[128:1],,,,
{16}
3x-5[8:1],,,,6x-2[8:1],,,,3x-5[8:1],,,,6x-2[8:1],,,,
{16}
3x-1[8:1],,,,4x-8[8:1],,,,3x-1[8:1],,,,4x-8[8:1],,,,
{16}
1x-4[8:1]*-6[8:1],,,,1x,,,,8x-3[8:1]*-5[8:1],,,,8x,,,,
{16}
2x-4[8:1]/6x-8[8:1],,,,2x-6[8:1]/6x-2[8:1],,,,2x/6x,,,,B8/B4/Cf,,,,
{16}
3-7[8:1],,,,7-3[8:1],,,,3-7[8:1],,,,7,,,,
{16}
5-1[8:1],,,,1-5[8:1],,,,5-1[8:1],,,,1,,,,
{16}
4h[8:1]/7h[8:1],,,,2h[8:1]/5h[8:1],,,,4h[8:1]/7h[8:1],,,,2h[8:1]/5h[8:1],,,,
{16}
3-5[8:1]/6-1[8:1],,,,3-7[8:1]/6-3[8:1],,,,3/6,,,,1b/8b,,,,
{16}
8h[8:1]/3h[8:1],,,,6h[8:1]/1h[8:1],,,,8h[8:1]/3h[8:1],,,,6h[8:1]/1h[8:1],,,,
{16}
2h[8:1],,,8h[16:1],3h[8:1],,7h[8:1],,1h[8:1],,,,2h[8:1]/8h[8:1],,,,
{16}
3h[8:1]/7h[8:1],,,,4h[8:1]/6h[8:1],,,,5h[8:1],3h[8:1],,6h[8:1],4h[8:1],,8,,
{16}
1>4[8:1]*<6[8:1],,,,1w5[8:1],,,,1,,,,2b/8b,,,,
{16}
4h[8:1]/7h[8:1],,,,2h[8:1]/5h[8:1],,,,A2/A4/A6/A8/B2/B4/B6/B8/C,,,,,,,,
{16}
3/6,,,,2-7-2[4:1]/8,,,,2b,,,,,,,,
{16}
6,,,,8/7,,,,6h[4:1]/B7f,,,,,,,,
{16}
1,2,3,4,5,6,7,8,1,2,3,4,5,6,7,8,
{16}
1/5,2,3,4,5/1,6,7,8,1/5,2,3,4,1/5,6,7,8,
{16}
1-5[8:1],,,,7-4[8:1],,,,1-5[8:1],,,,7-4[8:1],,,,
{16}
3-1[8:1]*-8[8:1],,,,,,,,6-3[8:1]*-1[8:1],,,,,,,,
{16}
7-5[8:1]*-4[8:1],,,,,,,,B7/B8,,,,B7/B8,,,,
{16}
8h[8:1]/B5/B4/E6,,,,8h[8:1]/B5/B4/E6,,,,1h[8:1]/B5/B4/E6,,,,1h[8:1]/B5/B4/E6,,,,
{16}
3h[8:1],,,,4h[8:1]/5h[8:1],,,,6h[8:1],,,8h[8:1],7,,,,
{16}
5/6,,,3h[8:1],4,,,5h[8:1],4,,,3h[8:1],4,,,,
{16}
1h[8:1]/6h[8:1],,,,3h[8:1]/8h[8:1],,,,1h[8:1]/6h[8:1],,,,3h[8:1]/8h[8:1],,,,
{16}
2-4[8:1]/7-5[8:1],,,,2qq8[4:1]/7pp1[4:1],,,,,,,,,,,,
{16}
4h[8:1]/5h[8:1],,,,1h[8:1]/8h[8:1],,,,E1,C,E5,,B5h[8:1]/B4h[8:1],,,,
{16}
4h[8:1]/5h[8:1],,,C,E1,,,,1-4[8:1],,,,1,,,,
{16}
5-1[8:1],6,7h[8:1],,5,,,,8b,,,,1,,1,,
{16}
8,,1,2,3,,8,,3/8,,3/8,,3b-5[8:1]/8b-5[8:1],,3b/8b,,
{16}
3bx/8bx,,,,,,,,,,,,2-4[8:1]/7-4[8:1],,,,
{16}
2x/7x,,,,,,,,,,,,1v4[8:1]/8-4[8:1],,,,
{16}
1x/8x,,,,1-5[8:1]/8v5[8:1],,,,1x/8x,,,,1v3[8:1]/8v6[8:1],,,,
{16}
1x/8x,,,,,,,,{32}E5f,B5/B4,B6/C/B3,E7/B7/B8/B1/B2/E3,,,,,{16},,,,
{16}
E8/B8/B1/B2/B3/B4/B5/E6/B6/B7/C,,,,,,,,B1/B8/B7/B6/B5/B4,,,,7x-3[8:1],,,,
{16}
7,,,,1,,1,,1h[8:1],,8h[4:1],,2,,2,,
{16}
2,,4,3h[16:3],4,,5,,5,,5h[4:1],,3,,3,,
{16}
3h[4:1],,6,,6,,6,5,6h[4:1],,4,,4,,4,,
{16}
4h[8:1],,7,,4h[8:1],,5,,4h[4:1],,7,,7,,7,,
{16}
7,5,6h[4:1],,7,,7,,5h[4:1],,4,,4,,4,,
{16}
6h[8:1],,5,,6,5,7,,4h[8:1],,8,,4h[8:1],,6,,
{16}
7h[8:1],,5,6h[8:1],4,,8h[8:1],,4,,4,,4,,4,,
{16}
4bv5[125#16:1]*p5[62.5#4:7],,,,,,,,C,,,,,,,,
{16}
,,,,,,,,,,,,,,,,
{16}
,,,,,,,,,,,,,,,,
{16}
,,,,,,,,,,,,,,,,
{16}
,,,,,,,,,,,,,,,,
{16}
,,,,,,,,,,,,,,,,
{16}
,,,,,,,,,,,,,,,,
{16}
,,,,,,,,,,,,,,,,
{16}
,,,,,,,,,,,,2?p6[16:1]/3?-6[16:1],,,,E3f,,
