&title=Electromagnetic Stealth Girl Born In Philadelphia
&artist=Camellia
&first=0.62
&des=Aza
&lv_5=14+
&inote_5=(132)
{1},,3h[4:7]/5>7[4:5],{4},,,4h[1:2],{1}6>8[4:5],{4},,,5h[1:2],{1}7<1[4:5],{4},,,6h[1:1],{1}8<3[4:3],{4}7,8,{2}1>5[8:1]*<5[8:1],
{8}2-4[8:1]/8,7,2-6[8:1]/6-1[8:1],5,2/6,,4>7[8:3]/8,7,{16}4,6,,6,,5,{8}5,6/8,1/7,{16}5,4,,2,{8}7-5[8:1],2,3-8[8:1]/7-3[8:1],4,3/7,,1/5<2[8:3],2,{16}5,3,,3,,4,4,,{8}1/3,2/8,{16}4,5,3,6,{16}2,7h[8:1],,5,,1/2,1/2,,5,3h[8:1],,4,,7/8,7/8,,1,5h[8:1],,4,,3/8,3/8,,7,4h[8:1],,5,,1/6,{8}1/6,7x/8x,7,7/5,5,3/5,3,1/3,1,{4}2<1s5<6[8:3]/8<7s3<4[8:3],,,3xV57[4:1]/7x-4[8:1],
{4}3b/7b>3[4:1],3qq5[8:3],6-4b[8:1],6V84[4:1],{16}3,,,2,2,,{8}1/3,3/7,6/8,2-5[8:1]/6V42[4:1],1x/7x,{4}2<6[4:1]/6,6pp4[8:3],3-5b[8:1],3V15[4:1],{8}5,6,7h[8:1],{16}4,3x/5x,{8}3<6[8:1]/5,7x,{4}3-8[8:1]/8-4[8:1],3b/8b>5[4:1],5qq1[8:3],8-5b[8:1],8,{8}2/4,2/6,5/7,3/7,{16}8,2,8,,{8}1-5[8:1]/6-1[8:1],2x/5x,{4}1<4[4:1]/6,4>6b[8:3],2h[4:1],{8},3x,4/5,5/6,4/5-1[8:1],3/4,{4}2-6[8:1]/5,2/8V24[4:1],
4V68b[4:1]/8b,8V25[4:1],5V71b[4:1],1V36[4:1],6V82b[4:1],2qq6[8:3],5-2b[8:1],5,3V17b[4:1]/8,7V52[4:1],2V86b[4:1],6V41[4:1],1V75b[4:1],5,{12}E4,E3,E2,E1f,E8,E7,
{8}1/8-4[8:1],7,6-2[8:1]/8,5,4>1[8:1]/6,4<7[8:1],4-8[8:1],4-7[8:1],4-1[8:1],4<6[8:1],4>2[8:1],4-8[8:1],4,4,1,2x/8x,3/7-3[8:1],2-6[8:1]/6,7,2,8-4[8:1],1-5[8:1],8,1,3>8[8:1]/8<5[8:1],2/7,{4}3-7[8:1]/8,1-5[8:1]/3,1/5,
{1}2b>8[1:1]/7b<1[1:1],{2},3v4[8:1]/6v5[8:1],{1}2b-8z4[1:1]/7b-1s5[1:1],{2},6pp7[8:1]/3qq2[8:1],{1}4b>3v2qq8[1:1]/5b<6v7pp1[1:1],{2},3V52[8:1]/6V47[8:1],{1}1hb[4:3]/8b>6[2:1],{4}B2/B3/B4/B5/B6/B7,B2/B3/B4/B5/B6/B7,E8/B7/B6/B1/B8/C/E6,B1/B2/B3/B4/B5/B6/B7/B8,
(131)
{4}1-5V37[2:1],8,7,6,
(127)
{4}5-8V63[2:1],4,3,2,
(123)
{4}1V36-2[2:1],8,7,6,
(118)
{16}5,4h[8:1],,5,,4/5,4/5,,{16}3bx,4bx,2bx,6bx,5bx,7bx,1bx,8bx,
(115)
{16}2/7,6<2[8:1],,3x/5x,,6,4x,,3,4x,,6,5b-1[8:1],,3x/4x,,
(111)
{16}5/2,3>7[8:1],,6x/4x,,3,5x,,6,5x,,3,4b-8[8:1],,5x/6x,,
(110)
{16}3/4,3,2,2,1,1,8,8,7,7,6,6,5,5,4,4,{32}3,4,3,4,3,4,3,4,2,5,2,5,2,5,2,5,1b,8,7,6,5,4,3,2,7b-3-7[2:1],6,5,4,3,2,1,8,{8},,,1h[8:1],,{32}2x,8x,2x,8x,2,3,4,5,6,7,8,1,
{8}2b-6[16:1]/5b,3/4,{16}2-4[16:1],7,8,7,2-8[16:1],6,5,6,2,,5/7,,4>1[16:1]/6,3,3,3,4/5<8[16:1],6,6,6,{8}4/5,{16}1
,2,{8}3V17[8:1]/4V28[8:1],7<3[8:1]/8,,,{32}1,8,7,6,5/1-5[16:1],2,3,4,8-4[16:1],7,6,5,{8}1>4[16:1],8,1b,{16}6<1[8:1],5/7,5/7,,{32}2/6,3,4,5,{8}6,{32}1/8-4[16:1],,,3/4,,,5/7,,1>6[8:3]/8b,,,2,,,5/6,,
{8}1b/7,7,8<3[8:3],8,8/3,3,2-6[16:1],2,2/7-3[16:1],8,2>5[16:1]/7,1,2-6[16:1]/6-1[16:1],7,{8}2/6,4/8,{32}2,1,2,1,2,1,2,1,3,8,3,8,3,8,3,8,4,7,4,7,4,7,4,7,5,6,5,6,5,6,5,6,{16}5-1[16:10],7x,8x,8x,,2x,3x,4x,{8}5w1b[16:1],4x/6x,A5/B5/Cf/B1/A1,,
{32}1b,2,3,4,5,6,7,8,4b,5,6,7,8,1,2,3,7b,8,1,2,3,4,5,6,2b,3,4,5,6,7,8,1,5b,6,7,8,1,2,3,4,8b,1,2,3,4,5,6,7,3b,4,5,6,7,8,1,2,{8}6b,2x/7x,{32}8b/1x,7,6,5,4,3,2,1,5b,4,3,2,1,8,7,6,2b,1,8,7,6,5,4,3,7b,6,5,4,3,2,1,8,4b,3,2,1,8,7,6,5,1b,8,7,6,5,4,3,2,6b,5,4,3,2,1,8,7,{8}3b,4x-8[16:1]/5x-1[16:1],3bx/6bx,4bx/5bx,{32}2b/7x,3,4,5,6,7,8,1,5b,6,7,8,1,2,3,4,8b,1,2,3,4,5,6,7,3b,4,5,6,7,8,1,2,6b,7,8,1,2,3,4,5,1b,2,3,4,5,6,7,8,{8}4b,3/6,{32}2/7bx,6,5,4,3,2,1,8,4b,3,2,1,8,7,6,5,1b,8,7,6,5,4,3,2,6b,5,4,3,2,1,8,7,{16}3b<6[16:1],,4x,4x,7>2[16:1]/3,,8,8,{8}4w8[16:1]/7,,{4}A4/B4/Cf/B8/A8,
{8}2v5[16:1]/6v1[16:1],3/7,{32}2<4[4:1]/6,Cf,,,{8},{4}4-8[16:1]/2,3hb[4:1],{32}6b,7,8,1,2,3,4,5,7b,8,1,2,3,4,5,6,8b,1,2,3,4,5,6,7,{8}1x/8x,2x/7x,{12}4-8[16:1]/5-1[16:1],4/5,3/6,{8}5b/4b>6[4:1],,6-2[16:1]/4,,{4}5hb[4:1],{32}3b,2,1,8,7,6,5,4,2b,1,8,7,6,5,4,3,{12}1bx,2bx/8bx,3bx/7bx,4bx>7[2:1]/6bx,5bx/7bx,{24}1bx/8bx,2bx/4bx,{8}7x,7,6,6,5,5,4<2[2:1],4,2x,2,3,3,4,4,5,{16}5,5,{32}4b,6,4,6,4,6,4,6,3b,7,3,7,3,7,3,7,2b,8,2,8,2,8,2,8,1b,7,1,7,1,7,1,7,1b,2,3,4,5,6,7,8,4b,5,6,7,8,1,2,3,7b,8,1,2,3,4,5,6,7>6[1:2],6,7,6,7,6,7,6,7b,
