&title=DOPPELT
&artist=Qlarabelle × Maozon
&first=0.7
&des_1=DOPPELT
&des_2=DOPPELT
&des_3=DOPPELT
&des_4=DOPPELT
&des_5=DOPPELT
&lv_5=14
&des_6=DOPPELT
&des_7=DOPPELT
&des=DOPPELT
&inote_5=(174)
{4},{24},,,,,,,,,,,,E4,B4,{6}E6,
{2}7pp6[2:1],3h[2:1],
5qq6[2:1],2h[2:1],
7qq8[2:1],4h[2:1],
1pp8[2:1],
{4}B3,,E8/3<2[4:5],
E7,E6,E5,E4,E3,E2,E1,
E8/A7/D8/5<4[4:5],
E7,E6,E5,E4,E3,E2,E1,
7-4[8:1],3-6[8:1],5-1[8:1],
{8}2-4[8:1],2,
{4}8<5[4:1],5>2[4:1],2<7[4:1],7,
5h[4:1],6-8[8:1],2-4[8:1],2/1h[4:1],
5>2[8:1],7<5[8:1],
{2}1w5[8:1],
{4}
7bv8-6-4-2[4:3],
8,1,2V86[8:3],
4,5-3[8:1],
7h[2:1],,
3b<4qq3[2:1],5,6pp7<6[8:3],6,
4-2[8:1],8-6[8:1],5-3[8:1],7,
2bv1-3-5-7[4:3],1,8,7V13[8:3],
5,4-6[8:1],
{4}2h[2:1],,
6b>5pp6[2:1],4,3qq2>3[8:3],3,
6<8[8:1],2>4[8:1],6<8[8:1],5h[4:1],
1bv2-8[2:1],2,8V64-2[8:3],2,
1,8>3[8:1],{2}8/7,
{4}6bv7-5[2:1],4,5>1[4:1],1<5[4:1],
5>1b[4:1],1<5b[4:1],4>2b[8:1],4,
{8}1b,1,4,3,7-5[8:1],3-1[8:1],7,3,
4b,4,1,5,2-4[8:1]
,6-4[8:1],2,6,
{16}E3,E2,E1,E8,E7/E3,E6,E5,E4,D7/E3,D6,D5,D4,2h[2:1]/D3,D2,D1,D8,
{4}D7,{8}6,{16}3,4,,5,{8}4,{4}7,
{8}6h[8:1],5,6h[8:1],{16}4,4,{8}6h[8:1],3,6h[8:1],5,
7h[8:1],6,7h[8:1],{16}5,5,7-5[8:1],8,,8,{4}7,
{8}3h[8:1],5,3h[8:1],{16}4,4,{8}3h[8:1],5,3h[8:1],4,
2h[8:1],5,2h[8:1],3,{16}2>4[8:1],1,,1,{4}2,
{8}5,{16}7,5,{8}6,{16}4,5,{8}3,{16}6,5,{4}7h[8:1],
{8}5,{16}2,4,{8}3,{16}5,4,{8}6,{16}3,4,{4}2h[8:1],
{8}4,{16}7,5,{8}6,{16}4,5,{8}3,{16}6,5,{4}7h[8:1],
8-6[8:1]/3-7[8:1],8V24[16:3],5w1[8:1],5,
7-4[8:1]/3-6[8:1],3/7,{8}2>5[8:1],5-2[8:1],2-4-8[4:1],6,
,7h[4:1],,5x>3[8:1],{4}7x,6x,
2-4[8:1]/4-8[8:1],2/4,{8}5>3[8:1],7,,6-8-3[4:1],
,3-1-5[4:1],,4,,3V52[4:1],,5,
{4}7h[4:1],{8}1,6v3<5-7[8:3],,6,{4}1>3[8:1],
{8}1,8h[4:1],,4,{4}5-1[8:1]/7-4[8:1],5/7,
3-6>5-2[8:3],{8}6,7-5>3-1[4:1],,7,{4}3h[4:1],
{8}8,8,,7/5,{4}7-4[8:1]/5-1[8:1],5/7,
2-5[8:1]/6-3[8:1],6/2,{8}7<4[8:1],4-7[8:1],7-5-1[4:1],3,
,2h[4:1],,8x<6[8:1],{4}2x,3x,
7-5[8:1]/5-1[8:1],7/5,{8}4<6[8:1],2,,3-1-6[4:1],
,6-8-4[4:1],,5,,6V47[4:1],,4,
{4}2h[4:1],{8}8,3v6>4-2[8:3],,3,{4}8<6[8:1],
{8}8,1h[4:1],,5,{4}4-8[8:1]/2-5[8:1],4/2,
{2}7h[2:3]/6>3[8:1],2>5[8:1],
6>3[8:1],{4}1w5[8:1],1,
{8}7-4[8:1],3-6[8:1],7,3,{4}7-5>4-8[4:1],{8}7,3,
{4}2-8<6-4[4:1],{8}2,6,{4}8<5[8:1],{8}4,4,
3-5[8:1],5-1[8:1],{4}3,7h[8:3],{8}8,8,
5/1>4[8:1],5,5,5,5/6<8[8:1],5,5,5,
2-5[8:1],6-3[8:1],2,6,{4}2-4<5-1[4:1],{8}2,6,
{4}7-1>3-5[4:1],{8}7,3,{4}1>4[8:1],{8}5,5,
6-4[8:1],4-8[8:1],{4}6,2h[4:1],{8}1,1,
8/3,8,8/5,8,8/1,8,{4}6/8,
{8}7x-4[8:1],3x-6[8:1],7,3,{4}7-5>4-8[4:1],{8}7,3,
{4}2-8<6-4[4:1],{8}2,6,{4}8<5[8:1],{8}1,2,
3-5[8:1],5-1[8:1],{4}3,7h[8:3],{8}8,8,
5/1>4[8:1],5,5,5,5/6<8[8:1],5,5,5,
2b-5[8:1],6-3[8:1],2,6,{4}2-4<5-1[4:1],{8}2,6,
{4}7b-1>3-5[4:1],{8}7,3,{4}1>4[8:1],{8}5,5,
6b<8[8:1],5,{4}6,2h[4:1],{8}1,1,
7/4,{16}6,5,{8}6h[8:1],2,{16}3,4,3,4,{4}5-1[8:1]/2-5[8:1],
{1}2/5bpp4>7[2:3],
{2},,8bx-4[8:1]/7bx-5[8:1],
2bx-4[8:1]/1bx-5[8:1],
{8}7bx<5[8:1]/3bx>1[8:1],7bx/3bx,{4}7bx/3bx,{2}8bxv3[8:1]/4bx-7[8:1],
{4}6-4-2-8[8:3],{8}7,8v3V17[8:3],,3,{4}4,
5-2-4-8[8:3],{8}6,7-4[8:1],,,{4}1,
3-5-7-1[8:3],{8}2,1v6V82[8:3],,6,{4}5,
4-7-5-1[8:3],{8}3,2-5[8:1],,,{4}8-6[8:1],
4>5[2:3],E5,E6,E7,
E8,E1,E2,E3,
4b>5b[2:3],E5,E6,E7,
E8,E1,E2,E3,
4b,4,4,4,
{8}5b/6b,7,5,6,{16}4,6,4,6,3,5,3,5,
{1}2b-6-4-1[2:1],
{16}8,8,8,8,8,8,8,8,{4}8<5[8:1],{16}5,4,{8}3,
{4}2x-4[8:1]/1x-5[8:1],2x-6[8:1]/1x-7[8:1],2x-4[8:1]/1x-5[8:1],2x-6[8:1]/1x-7[8:1],
1x-5[8:1]/2x-4[8:1],1x/2x,{8}7x/3x,7x/3x,{4}4/6>3[8:1],
6/1-5[8:1],1/6-1[8:1],6/4,{8}2h[8:1],{32}1,8,7,6,
{4}5/3<6[8:1],{16}1,8,{8}7h[8:1],5w1[8:1],5,,,{4}3x-1[8:1]/7x<4[8:1],
3x/7x>2[8:1],7x/5x-1[8:1],5x/3x<6[8:1],
3x/7x-4[8:1]*-3[8:1],7x,{8}1x-6[8:1]*-4[8:1],1,,,{4}3x<5[8:1],
5x/3x,{16}7x,5x,,5x,{8}6,4x,
5,{16}3,4,3,4,{8}3h[8:1],{2}6w2[8:1],
{4}4h[8:1]/8<5[8:1],2h[8:1]/8>3[8:1],6h[8:1]/8<5[8:1],2h[8:1]/8>3[8:1],
4p8[8:1]/8<5[8:1],8>3[8:1],4w8[8:1],4,
6-4[8:1]/2v5[8:1],6<1[8:1],2v5[8:1]/6-4[8:1],6<1[8:1],
6-4[8:1]/2v5[8:1],2V48[4:1],2,7h[4:1],
5,{16}7,5,7,5,6,4,6,4,5,3,5,3,
4,5,6,7,8/4,1,2,3,4/8,1,2,3,{4}4/7h[4:1],
{16}5,8,5,8,4,7,4,7,{32}3x,2,1,8,7x,6,5,4,3x,2,1,8,7x,6,5,4,
{16}3/8h[16:3],,,7h[16:3],,,{8}6,{16}2h[16:3],,,3h[16:3],,,{8}4,
E
