&title=G e n g a o z o
&artist=-45
&first=0
&des=Steven
&lv_5=14.5
&des_5=Steven
&inote_5=
(153){4},{8},,,,,,8b/1b,
{16}2,1,{8}2,{16}7,8,{8}7,{16}3,2,{8}3,{16}6,7,
{8}6,{16}3,4,{8}3,{16}6,5,{8}6,{16}4,5,{8}4,{16}5,5,
{8}5,{16}4,4,{8}4,{16}6,5,{8}6,{16}3,4,{8}3,{16}7,6,
{8}7,{16}2,3,{8}2,{16}7,8,{8}7,{16}2,1,{8}2,{16}1,8,
{8}1,{16}1,7,{8}1,{16}1,6,{8}1,{16}1,5,{8}1,{16}1,4,
{8}1,{16}1,3,{8}1,{16}1,2,{8}1,{16}8,1,{8}8,{16}8,2,
{8}8,{16}8,3,{8}8,{16}8,4,{8}8,{16}8,5,{8}8,{16}8,6,
{8}8,{16}8,7,{4}8,E8/B8/B1/E2,E6/B5/B4/E4,
{16}1,2,8,3,7,4,6,5,4,3,5,2,6,1,7,8,
8,1,7,2,6,3,5,4,5,4,6,3,7,2,8,1,
8,8,7,7,6,6,5,5,4,4,3,3,2,2,1,1,
8,8,6,6,4,4,2,2,1,1,3,3,5,5,7,7,
{8}8p5b[4:7],1,2,3,4,4,3,2,
1,1,3,1,3,2,4,2,
1q4b[4:7],8,7,6,5,5,6,7,
8,8,6,8,6,7,5,7,
5-1[8:5],4,6,3,7,2,{4}8,
{8}8-4[8:5],1,7,2,6,3,{4}5,
{8}5-1[8:5],4,6,3,7,2,{4}8,
{8}4-8[8:5],3,5,2,6,1,{4}7,
{8}5<1<5[4:7],4,3,2,1,2,3,4,
4,3,2,1,1,2,3,4,
4>8>4[4:7],5,6,7,8,8,7,6,
5,5,6,7,8,8,7,6,
{16}5,1,6,2,7,3,8,4,4,8,3,7,2,6,1,5,
5,2,7,3,6,1,8,2,1,2,1,3,1,4,1,5,
1,6,1,7,1,8,1,1,8,2,8,3,8,4,8,5,
8,6,8,7,8,E8,B8,B1,E2,E8,B7,B6,{32}E6,E2,B2,B3,E4,B4,B5,E6,
{16}8-4-8[60:97],1,7,2,6,3,5,2,7,2-6[16:1],{8}5,{16},,,,3,
5,2,6,1,7,{8}2-6[32:1],2,2,{16},,,,1-5-1[60:97],
8,2,7,3,6,4,7,2,7-3[16:1],{8}4,{16},,,,6,
4,7,3,8,2,{8}7-3[32:1],7,7,{16},,,,3,
2,3,4,3,2,3,4,3,2,3,4,3,2,3,4,
{4}3,3,3,{16}3,4,5,6,
6,7,6,5,6,7,6,5,6,7,6,5,6,7,6,5,
{4}6,6,6,{16}6,5,4,3,
3,4,6,5,3,4,6,5,3,4,6,5,3,4,6,5,
{4}4,4,4,{8}4,{16}4,5,
4,3,5,6,4,3,5,6,4,3,5,6,4,3,5,6,
4,5,3,6,2,7,1,8,1,8,2,7,3,6,4,5,
3,7,3,7,3,7,3,7,2,6,2,6,2,6,2,6,
{32}7x,6x,2x,3x,7x,6x,2x,3x,7x,6x,2x,3x,7x,6x,2x,3x,7x,6x,2x,3x,7x,6x,2x,3x,7,6,5,4,3,2,1,8x,
{16}7x,3,7,3,7,3,7,3,6,2,6,2,6,2,6,2,
{32}2bx,3bx,7bx,6bx,2bx,3bx,7bx,6bx,2bx,3bx,7bx,6bx,2bx,3bx,7bx,6bx,2bx,3bx,7bx,6bx,2bx,3bx,7bx,6bx,2,3,4,5,6,7,8,1x,
{16}8x,1,7,2,6,3,5,4,5,4,6,3,7,2,8,1,
E1,B8,B7,E7,E3,B3,B4,E5,E7,B6,B5,E5,E1,B1,B2,E3,
4,3,5,2,6,1,7,8,7,8,6,1,5,2,4,3,
E3,E4,E5,E6,E7,E8,E1,E2,E3,E2,E1,E8,E7,E6,E5,E4,
{4}5/3,1/7,{2}5-7[16:1]/3-1[16:1],
{16}6,3,5,2,4,1,3,8,4,1,5,2,6,3,7,4,
{4}6/4,8/2,{2}6-8[16:1]/4-2[16:1],
{16}3,6,4,7,5,8,6,1,8,5,7,4,6,3,5,2,
{4}6/3,7/2,6/3,7/2,
{16}8,1,7,2,6,3,5,4,5,4,6,3,7,2,8,1,
{4}7/2,6/3,7/2,6/3,
{16}5,4,3,2,5bx/1,8,7,6,1bx/5,6,7,8,5bx/1,2,3,4,
{4}5/1bh[4:7],5,5,5,
5,5,5,5,
{16}5,4,,4,{8}3,{16}3,2,,2,{8}1,{16}8,7,,7,
{8}6,{16}5,1,,7,{8}3,{16}6,2,,8,{8}4,{16}1,2,
,2/1,{8}8/3,{16}2/1,8/3,,8/7,{8}6/1,{16}8/7,6/1,,1/8,{8}7/2,
{16}8,1,,1,{8}8,{16}8,1,,1,{8}8,{16}8,1,,1,
{8}8,{16}4,5,,5,{8}4,{16}4,5,,5,{8}4,{16}4,5,
{32},,5h[16:1]/E2,E1,{8}E8,{32}4h[16:1]/E8,E1,{16}E2,{32},,5h[16:1]/E2,E1,{8}E8,{32}4h[16:1]/E8,E1,{16}E2,{32}E1,E8,E7,E6,E5,E4,E3,E2,
{16}6,7,,6,{8}5,{16}6,7,,6,{8}5,{16}6,7,6,5,
3,2,,3,{8}4,{16}3,2,,3,{8}4,{32}2,3,{16}4,{32}2,3,{16}4,
1,8,,1,{8}2,{16}1,8,,1,{8}2,{16}1,8,1,2,
8,1,,8,{8}7,{16}8,1,,8,{8}7,{32}1,8,{16}7,{32}1,8,{16}7,
3,2,,3,{8}4,{16}3,2,,3,{8}4,{16}3,2,3,4,
6,7,,6,{8}5,{16}6,7,,6,{8}5,{32}7,6,{16}5,{32}7,6,{16}5,
8,1,,8,{8}7,{16}8,1,,8,{8}7,{16}8,1,8,7,
1,8,,1,{8}2,{16}1,8,,1,{8}2,{32}8,1,{16}2,{32}8,1,{16}2,
{2}8h[4:1]/Ch[4:1],{4}8/1-6[16:1],{16}8,7,,,{4}2/1-4[16:1],
{16}2,3,,,{4}7/6-2[16:1],{16}7,8,,,{4}4/6-1[16:1],
{16}4,3,,,{4}4/3-7[16:1],{16}4,5,,,{4}2/3-8[16:1],
{16}2,1,,,8q6[16:1],1p3[16:1],,,,,,,1-4-7[16:1],
8,,,,,,,8-5-2[16:1],1,,,,,,,5-2-7b[16:1],
6b,,,,,,,4-7-2b[16:1],3b,,,,,,,8-5[16:1],
8-3[16:1],,,,,,,5-8[16:1],5-2[16:1],,,,,,,3-8[16:1],
3-6[16:1],,,,,,,1-4[16:1],1-6[16:1],,,,,,,{4}8<4[4:1],
4>8[4:1],8-4[4:1],4-8[4:1],
8>4[4:1],4<8[4:1],1,4,
8h[1:2],7,1,5,
3,6b,{48}2b,,,,,,,,,,,,,5,4,3,4,5,,,,,,,{4}1h[1:2],
2,8,4,
6,3b,{48}7b,,,,,,,,,,,,,4,5,6,5,4,,,,,,,{4}4h[1:2],
3,5,1,
7,2b,{48}6b,,,,,,,,,,,,,1,8,7,8,1,,,,,,,{4}5h[1:2],
6,4,8,
2,7b,{48}3b,,,,,,,,,,,,,8,1,2,1,8,,,,,,,{16}1,
7,,7,{8}5,{16}5,3,,3,{8}1,{16}1-7[16:1],5-3[16:1],,,1,
5,,2-6[16:1],{4}6-2[16:1],{32},,,,,,,,E8,E1,E5,E4,,,,,{16}8,
2,,2,{8}4,{16}4,6,,6,{8}8,{16}8-2[16:1],4-6[16:1],,,8,
4,,7-3[16:1],{4}3-7[16:1],{32},,,,,,,,E2,E1,E5,E6,,,,,{16}4,
5,,5,{8}4,{16}4,5,,5,{8}4,{16}5/4,6/3,,,5,
4,,4,{8}5,{16}5,4,{2}4v7[16:1]*v1[16:1],
{16}6,4,6,2,7,4,7,2,8,4,8,2,8,2,8,2,
{32}8x,7x,2x,3x,8x,7x,2x,3x,6x,5x,3x,4x,6x,5x,3x,4x,4x,3,2,1,8,7,6,5,4,B5,B6,B7,B8,B1,B2,B3,
{16}3,5,3,7,2,5,2,7,1,5,1,7,1,7,1,7,
{32}1x,2x,7x,6x,1x,2x,7x,6x,3x,4x,6x,5x,3x,4x,6x,5x,5x,6,7,8,1,2,3,4,5,B4,B3,B2,B1,B8,B7,B6,
{16}8,7,6,5,8,7,6,5,8,7,6,5,8,7,6,5,
5,4,6,3,7,2,8,1,8,1,7,2,6,3,5,4,
1,2,3,4,1,2,3,4,1,2,3,4,1,2,3,4,
4,5,3,6,2,7,1,8,1,8,2,7,3,6,4,5,
{4}4-7[16:1],{32}3,2,,,,,,,{4}4-1[16:1],{32}5,6,,,,,,,{16}8,
1,8,1,8,8,8,8,8,7,8,7,8,8,8,8,
{4}8-3b[16:1],{32}7,6,,,,,,,{4}8-5b[16:1],{32}1,2,,,,,,,{16}4,
5,4,5,4,4,4,4,4,3,4,3,4,4,4,4,
{4}3h[4:1]/B3,{32}6,7,,,,,,,{4}6h[4:1]/B6,{32}3,2,,,,,,,{16}7,
2,7,2,7,6,7,6,7,8,7,8,7,7,7,7,
2,7,2,7,2,3,2,3,2,1,2,1,2,2,2,2,
{32}2bx/1bx,8x,7x,6x,5x,4x,3x,2x,8bx/1bx,7x,6x,5x,4x,3x,2x,1x,8bx/7bx,6x,5x,4x,3x,2x,1x,8x,7bx/6bx,5x,4x,3x,2x,1x,8x,7x,
{1}6bh[32:63]/2bh[32:63],
E
