&title=emp
&artist=夜抒 feat. 初音ミク
&first=0
&des_1=empty.
&des_2=empty.
&des_3=empty.
&des_4=empty.
&des_5=empty.
&lv_5=14
&des_6=empty.
&des_7=empty.
&des=empty.
&inote_5=(180){1},
{8}7h[32:1],6h[32:1],5h[32:1],4h[32:1],3h[32:1],2h[32:1],1h[32:1],,
{16}3h[8:2],,7,,8h[8:3],,1,2,3,4,5,,8,,,,
{16}4h[8:2],,7,,8h[8:3],,1,2,3,4,5,,8,,,,
{16}3h[8:2],,6,,7h[8:3],,8,1,2,3,4,,7,,,,
{16}3h[8:2],,6,,7h[8:3],,8,1,2,3,4,,7,,,,
{16}6h[8:2],,4,,3h[8:3],,4,5,6,7,8,,3,,,,
{16}6h[8:2],,4,,3h[8:3],,4,5,6,7,8,,3,,,,
{16}5h[8:2],,3,,2h[8:3],,3,4,5,6,7,,2,,,,
{16}5h[8:2],,3,,2h[8:3],,3,4,5,6,7,,1,,2,3,
{16}4h[8:2],,5,,7h[8:3],,8,1,2,3,4,,7,,2,3,
{16}4h[8:2],,5,,7h[8:3],,8,1,2,3,4,,7,,2,3,
{16}4h[8:2],,6,,8h[8:3],,1,2,3,4,5,,8,,2,3,
{16}4h[8:2],,6,,8h[8:3],,1,2,3,4,5,,8,,6,7,
{16}8h[8:2],,4,,2h[8:3],,4,5,6,7,8,,2,,6,7,
{16}8h[8:2],,4,,2h[8:3],,4,5,6,7,8,,2,,6,7,
{16}8h[8:2],,5,,3h[8:3],,4,5,6,7,8,,3,,6,7,
{16}8h[8:2],,5,,3h[8:3],,4,5,6-3[8:1],7,8h[8:1],,,,,,
{8}2-5[16:3]/5,,1,,8-3[16:3],,7,,6-1[16:3],,5,4,3,7,6,1/5,
{16},,2/4,,2h[8:4],,,,3,4,5,6,7,,,,2/4,,2h[8:4]/4,,,,3,,3,4,5,6,7,,,,
{8}1-5[16:3],,2,,3-7[16:3],,4,,5-1[16:3],,6,,
7-3[16:3],,2,1-5[8:1],,8,7,4,3,6,5,8,1-5[16:2],4-8[16:2],,,,3,4,5,
{8}6-1[16:3],,5,,4-7[16:3],,3,,2-5[16:3],,1,8,7,3,2,5/1,
{16},,2/4,,2h[8:4],,,,3,4,5,6,7,,{8}1,1^4[16:3],,5,5^8[16:3],,1,1-5[16:2],,
{8}6h[8:4],,4,,2h[8:4],,4,6,6^1[16:3],,2,2^5[16:3],,8,8-4[16:2],,
{8}3h[8:4],,5,,6,7,2,3,4h[8:6]/8,,3,3-6[16:3],,,,,
{8}8h[32:1]/4h[32:1],,,6/5,7,,1/2,3,,6/5-8[8:1],7-4[8:1],,,,,1/2,
{8}3,,,8/7,2,,3/4,6,,8/7,3,,3/4,7,,1/8,
{16}6h[8:4],,,,7,8,1,2,3,4,5,6,7,8,1,2,
{16}3h[8:4]/4,,,,5,6,7,8,1,2,3,4,5,6,7,8,
{8}1-4[8:1]/2,,,2,1-4[8:1],,,8,1-4[16:3],,4-8[16:3],,8-5[16:3],,2,,
{8}3h[32:1]/7h[32:1],,,2/1,3,,5/6,7,,2/1-4[8:1],3-8[8:1],,,,,5/6,
{8}7,,4/3,7,2,7/8,2,3,4/5^8[8:2],,8^3[8:2],,3^6[8:2],,8,,
{16}2h[8:4],,,,3,4,5,6,7,8,1,2,3,4,5,6,
{16}7h[8:4]/8,,,,1,2,3,4,5,6,7,8,1,2,3,4,
{16}6h[8:4]/5,,,,8,1,2,3,4,5,6,7,4/8,1,2,3,
{16}4/8,5,6,7,8/4,1,2,3,4/8-4[8:1],,,,,,,,
{16}2h[8:2],,4,,5h[8:3],,6,7,8-4[8:1],1,2,,,,,,
{16}3h[8:2],,4,,5h[8:3],,6,7,8-5[8:1],1,2,,,,,,
{16}4h[8:2],,5,,6h[8:3],,7,8,1-5[8:1],2,3,,,,,,
{16}4h[8:2],,5,,6h[8:3],,7,8,1-4[8:1],2,3,,,,,,
{16}2h[8:2],,4,,5h[8:3],,6,7,8-4[8:1],1,2,,,,,,
{16}3h[8:2],,4,,5h[8:3],,6,7,8-5[8:1],1,2,,,,,,
{16}4h[8:2],,5,,6h[8:3],,7,8,1-5[8:1],2,3,,,,,,
{16}4h[8:2],,5,,6h[8:2],,7-4[8:1],8,1-4[8:1],2,3,,,,,,
{16}8h[8:2],,1,,2h[8:3],,3,4,5-1[8:1],6,7,,,,,,
{16}8h[8:2],,1,,2h[8:3],,3,4,5-8[8:1],6,7,,,,,,
{16}6h[8:2],,8,,1h[8:3],,2,3,4-8[8:1],5,6,,,,,,
{16}7h[8:2],,8,,1h[8:3],,2,3,4-1[8:1],5,6,,,,,,
{16}8h[8:2],,1,,2h[8:3],,3,4,5-1[8:1],6,7,,,,,,
{16}8h[8:2],,1,,2h[8:3],,3,4,5-8[8:1],6,7,,,,,,
{16}6h[8:2],,8,,1h[8:3],,2,3,4,5,6,7,8/1,2,3,4,
{16}1/5,6,7,8,1/5,2,3,4,1-5[8:1]/5,6,7,8,5b,,,,
{16}6,,4/3,,1h[8:4],,2,3,4,5,6,7,8-5[8:1],,,,
{16}4,,3,,2h[8:4],,3,4,5,6,7,8,1-4[8:1],,,,
{16}7,,6,,5h[8:4],,6,7,8,1,2,3,4-1[8:1],,,,
{16}8,,7,,6h[8:4],,7,8,1,2,3,4,5-8[8:1],,,,
{16}3,,2,,1h[8:4],,2,3,4,5,6,7,8-5[8:1],,,,
{16}4,,3,,2h[8:4],,3,4,5,6,7,8,1-4[8:1],,,,
{16}7,,6,,5h[8:4],,6,7,8,1,2,3,4-1[8:1],,,,
{16}8,,7,,6h[8:4],,7,8,1,2,3,4,5-8[8:1],,,,
{16}3,,2,,1h[8:4],,2,3,4,5,6,7,8-5[8:1],,2,3,
{16}4,,3,,2h[8:4],,3,4,5,6,7,8,1-4[8:1],,7,6,
{16}5,,6,,5h[8:4],,6,7,8,1,2,3,4-1[8:1],,6,7,
{16}8,,7,,6h[8:4],,7,8,1,2,3,4,5-8[8:1],,3,2,
{16}1,,2,,1h[8:4],,2,3,4,5,6,7,8-5[8:1],,2,3,
{16}4,,3,,2h[8:4],,3,4,5,6,7,8,1-4[8:1],,7,6,
{16}5,,6,,5h[8:3],,6,7,8,1,2,3,4/5,6,7,8,
{16}1/5,2,3,4,5/1,6,7,8,1/5,2,3,4,5/1,6/2,7/3,8/4,
{128}1^4[4:14],5^8[4:22],,,,,,,,,,,,,,,,,,,,,,,,,,,,,,,,,,,,,,,,,,,,,,,,,,,,,,,,,,,,,,,,,,,,,,,,,,,,,,,,,,,,,,,,,,,,,,,,,,,,,,,,,,,,,,,,,,,,,,,,,,,,,,,{1},,,
{1}1^4[4:14],,5^8[4:6],,
{8}4^7[8:4],3,2h[8:6],,,,,,7^2[8:4],6,5h[8:6],,,,,,
{8}2^5[8:4],1,8h[8:6],,,,,,5^8[8:4],4,3h[8:6],,,,,,
{8}8^3[8:4],7,6h[8:6],,,,,,3^6[8:4],2,1h[8:6],,,,,,
{8}6^1[8:4],5,4h[8:6],,,,,,1^4[8:6],2,5^8[8:4],,,,,,
E
