&title=STYX HELIX
&artist=MYTH & ROID
&first=1.226
&lv_5=13
&des_5=MFDaffodil
&inote_5=
(123){4}6qq8[8:5],{8},,E2/B2,,,3,
4x-1[8:1],5,{4}6-3[8:1],{16},,,,,,2x,3x,
{4}6x/4xh[4:3],,,7V13q5[1:1],
,,,,{2}2x,
B7/B6,
7xh[1:1],4x,
{1}2xh[1:1],
{4}B7/B6,B2/B3,{2}Ch[8:9],
{8},,,,,5x,4-8[8:1],3,
{4}4/2q7[4:1],2/7<3[4:1],1xqq6[4:1],{8}1bx,3x,
{4}3x-6[8:1],3/7w3[8:1],{2}A7f/D8/D7,
1-5[8:1]/2-4[8:1],7q4[8:1]/8>3[8:1],
{4}3x<7[4:1],7x>3b[4:1],{8},4x,5-1[8:1],6,
{4}5/7p2[4:1],7/2>6[4:1],8xpp3[4:1],{8}8bx,6x,
{4}6x-3[8:1],6/2<7[4:1]*>5[4:1],,,2>5[4:1],
5<8[4:1],8>3[4:1],3x,
7<4[4:1],4>1[4:1],1<6[4:1],6x,
{2}2x-4[8:1],{4}7x-5[8:1],2x>5b[8:1],
{8}2b/8p5[2:1],,,3,{4}3,2x>5[8:1],
{8}2x/8pp6[2:1],,,4,{4}4,B4/E5,
{8}B1/B2,{16},,,,6,5,{8}6h[8:3],{16},,,,3,4,
{8}3h[8:3],{16},,,,7,6,{4}7h[4:1],8<5b[8:1],
{8}8b/2q5[2:1],,,7,{4}7,8<5b[8:1],
{8}8x/2xqq4[2:1],,,6,{4}6,7v2V83[2:1]*v4V63[2:1],
{8},,,,,,,2xpp5[8:3],
2x,1,8,7x,{4}7xp1[4:1],{8}4x,4x,
{2}4xh[2:1],6xh[2:1],
{4}C,7h[4:1],5h[4:1],4h[4:1],
{2}2>5[4:1],8<4[4:1],
{1}Cfh[1:1],
{8},,,,,7,8-4[8:1],1,
8/2q7[4:1],1,2/7<3[4:1],8,{4}1qq6[4:1],{8}1bx,3x,
3x-6[8:1],4,3/7-2[8:1],8,7/E4f/B3/B4,,,3/5-2[8:1],
4,5/6,,6/4-7b[8:1],5,3x/4x,,2x>5[4:1],
,5V31[4:1],6,{16}8x,7x,{4}6bxp2[8:1],6b/8bxh[4:1],
{8},7,{4}7-4[8:1],{8}2,2pp1[8:3],,8,
7,6,{4}6pp2[2:1],{16}2,,,3,,,{8}4,
{4}4b>8[4:1],8<4[4:1],4>8[4:1],8z4[8:3]*-5[8:3],
{8},,,,,3,2-5[8:1],1,
2/8p3[4:1],1,8/3<7[4:1],2,{4}1pp4[4:1],{8}1bx,7x,
7x-2[8:1],8,7/3-6[8:1],4,3/B8/B7/E8f,,,6/4-7[8:1],
5,4/3,,3/5-2b[8:1],4,6x/5x,,7x<4[4:1],
,4V68[4:1],3,{16}1x,2x,{4}3bxq7[8:1],3b/1bxh[4:1],
2>5[4:1],5<8[4:1],8>3[4:1],3q3[4:1],
,7xqq3[2:1],{16}2,,,1,,,{8}8,
8pp3[2:1],{16},,,,5x,6x,{8}7xh[4:1],,,2x,
{4}2-7[4:1],7-4[4:1],4-1[4:1],{8}1p6[2:1],{16}7x,6x,
{1}5xh[4:3],
{4}7-4[8:1]/8-3[8:1],8x/7x,2-5[8:1]/1-6[8:1],1x/2x<7[4:1],
{8}2x/7V13[4:1],5,{4}3xV57[4:1],{8}7xp1[4:1],8,{4}1V35[4:1],
{8}5x>8[4:1],6,{4}7xh[4:1],{8},6x,5x,4x,
{4}3xh[4:1]/7-4[8:1],7,2-5[8:1],2/8x<4[4:1],
8x/4x>8[4:1],8x<4[4:1],{8}4xV61[4:1],3,{4}1xV35[4:1],
5xV71[4:1],1xV35[4:1],{8},1x,1x,1xh[8:1],
E
