&title=Yellow
&artist=Le☆S☆Ca
&des=Reishi
&wholebpm=155
&first_1=0
&first_2=0
&first_3=0
&first_4=0
&first_5=0
&amsg_first=
&tap_ofs=
&hold_ofs=
&slide_ofs=
&break_ofs=
&lv_1=1
&lv_2=2
&lv_3=5
&lv_4=9
&lv_5=10
&seek=
&wait=
&inote_1=
(155)
{1},
{1},
{2}1,,3,,5,,7,,
8,,6,,4,,2,,
4-1[4:4],,
5-8[4:4],,,
5,,5,,6,,3,,2,,
4,,4,,3,,3,,4,,
2h[1:1],,,2,,4,,7,,
2b,3b,2,,6,,4,
52,,3,,3,,5,,5,
5,,5,,4,,1,,5,,6,
4,,2,,5,,8,,4,,2,
2,,5,,3,,1,
52,,3,5,3,3,5,6,5,
5,3,5,7,4,2,3,5,2,34,
26,2,3,
E
&inote_2=
(155)
{1},
{1},
{2}1,2,3,4,5,6,7,8,
8,7,6,5,4,3,2,1,
4-1[4:4],,
5-8[4:4],,,
5,3,5,7,6,2,3,3,2,4,
4,2,4,9,3,2,3,2,4,2,
2h[1:1],,,2,5,4,8,7,6,
2b,3b,2,5,6,2,4,
52,26,3,5,3,3,5,6,5,
5,3,5,7,4,2,1,3,5,4,6,
4,5,2,3,5,6,8,7,4,1,2,
2,3,5,2,3,2,1,
52,26,3,5,3,3,5,6,5,
5,3,5,7,4,2,3,5,2,34,
26,2,3,
E
&inote_3=
(155)
{1},
{1},
{8}2,,5,,4,,8,8h[8:2],
{16},,2h[8:2],,,,,,,,,,4,,,,
{8}1,,,,,5,5,7,
{8},,,,,,7,,
{8}1,,2,,,,2,,
{8}8,,2,,,,,,
{8}4b,,3b,,7b,,8h[8:5],,
{8},,,,,,,,
{8}7,,4,,5,,1,1,
{16},,7,,,,,,,,,,4h[2:1],,,,
{8}8,,,,,4,,3h[8:3],
{8},,,,,,5,,
{8}6,,3,,,,4,,
{8}5,,6,,,,,,
{8}3b,,6b,,1b,,4h[8:5],,
{8},,,,3,,1,,
{8}5h[8:6],,,,,,1-5[8:10],,
{8},,,,,,,,
{8}2h[8:6],,,,,,4-7[8:2],,
{8},,,,1,,1,,
{8},,7,,,,2,,
{8},,5,,,,4,,
{8},,6h[8:4],,,,,,
{8},,,,7h8[8:2],,4h[8:2],,
{8}8h[8:6],,,,,,,3,
{8},,,,8,,,,
{8}6-2[8:6],,,,,,1,,
{8},,,,8,,8,,
{8},,2,2,,,7,7,
{8},,4,4,,,5,5h[8:7],
{1},
{8},,,,1b,,8b,,
{8}7<4[8:1],,,,5-2[8:1],,,,
{8},,8,8h[8:2],,,,,
{8}2>5[8:1],,,,4-7[8:1],,,,
{8},,4,5h[8:2],,,1,1,
{8},,7,7,,,2,2,
{8},2,,8b,7b,,5h[8:2],,
{8}6h[8:2],,7,,2h[8:5],,3,,
{8},,,,4b,,4b,,
{8}3-5[8:1],,,,5-7[8:1],,,,
{8},,5,5h[8:2],,,,,
{8}5-7[8:1],,,,3-5[8:1],,,,
{8},,4,2h[8:2],,,6,6,
{8},,2,2,,,8,8,
{8},,,1b,2b,,,,
{8}3h[8:2],,,,7h[8:5],,,,
{8},,,,5,,3,,
{8}1,,7,,5,,5,6h[8:2],
{8},,,,4,,6,,
{8}8,,2,,4,,4,3h[8:2],
{8},,,,4,,4,4h[8:2],
{8},,78,78,,,12,12],
{8},,56,56,,,43,43,
{1},
{8}4,,5,,3,,6,,
{8}2,,2,,7,,7,,
{8}45,,45,,45,,45,,
{1},
E
&inote_4=
(155)
{1},
{1},
{8}2,2,5,5,4,4,8,8h[8:2],
{16},,2h[8:2],,,,,,,,,,5h[2:1],,,,
{8}1h[8:4],,,,,5,5,6h[8:3],
{8},,,,,,78,78,
{8}71,71,72,,,,12,12,
{8}28,28,27,,,,,,
{8}4b/5b,,3b/6b,,7b/2b,,1h[8:5]/8h[8:5],,
{8},,,,,,,,
{8}7,7,4,4,5,5,1,1h[8:2],
{16},,7h[8:2],,,,,,,,,,4h[2:1],,,,
{8}8h[8:4],,,,,4,4,3h[8:3],
{8},,,,,,56,56,
{8}64,64,63,,,,34,34,
{8}35,35,36,,,,,,
{8}3b/7b,,2b/6b,,5b/1b,,8h[8:5]/4h[8:5],,
{8},,,,3h[8:2],,1h[8:2],,
{8}5h[8:6],,,,,,1s5[8:10],1,
{8},,,,,,,,
{8}2h[8:6],,,,,,4<7[8:2],4,
{8},,,,1,2,3,4,
{8},,7,7h[8:2],,,2,2h[8:2],
{8},,5,5h[8:2],,,4,4h[8:2],
{8},6,6h[8:4],,,,,,
{8},,,,7h8[8:2],,4h[8:2],,
{8}8h[8:6],,,,,,3q5[8:10],3,
{8},,,,8h[8:3],,,,
{8}6-2[8:6],,,,,,1,1,
{8},,,,8,7,6,5,
{8},,12,12,,,24,24,
{8},,78,78,,,75,7h[1:1]/5h[1:1],
{1},
{8},,,,1b/8b,,1b/8b,,
{8}7<4[8:1],,3>8[8:1],,5-2[8:1],,1-6[8:1],,
{8},,18,1h[8:2]/8h[8:2],,,,,
{8}2>5[8:1],,6<1[8:1],,4-7[8:1],,8-3[8:1],,
{8},,45,4h[8:2]/5h[8:2],,,16,16,
{8},,73,73,,,28,28,
{8},2,,8b,7b,,5h[8:2],,
{8}6h[8:2],,7h[8:2],,2h[8:5],,3h[8:3],,
{8},,,,4b,,4b,,
{8}3-5[8:1],,7-1[8:1],,5-7[8:1],,1-3[8:1],,
{8},,57,5h[8:2]/7h[8:2],,,,,
{8}5-7[8:1],,1-3[8:1],,3-5[8:1],,7-1[8:1],,
{8},,42,4h[8:2]/2h[8:2],,,63,63,
{8},,25,25,,,78,78,
{8},7,,1b,2b,,4h[8:2],,
{8}3h[8:2],,2h[8:2],,7h[8:5],,6h[8:3],,
{8},,,,5,4,3,2,
{8}1,8,7,6,5,6,5,6h[8:2],
{8},,,,4,5,6,7,
{8}8,1,2,3,4,3,4,3h[8:2],
{8},,,,4,4,4,4h[8:2],
{8},,78,7h[8:2]/8h[8:2],,,12,1h[8:2]/2h[8:2],
{8},,56,5h[8:2]/6h[8:2],,,43,4h[8:6]/3h[8:6],
{1},
{8}4,4,5,5,3,3,6,6,
{8}2,2,2,2,7,7,7,7,
{8}45,45,45,45,{16}45,,4,5,4,,4b/5b,,
{1},
E
&inote_5=
(155)
{1},
{1},
{8}4,4,5,5,6,7,8,1h[8:2],
{16},,2h[8:2],,,,3,,,,,,4/5h[2:3],,,,
{8}1h[8:4],,,,,3,4,6h[8:3],
{8},,,,,,81,8<6[8:1],
{8}1q5[8:1],8b,1b,,,,81,1>3[8:1],
{8}8p4[8:1],1b,8b,,,4,5,6,
{8}78,,12,,34,,5-2[8:2]/6-1[8:2],,
{8}56,,,,{16}1,2,3,4,5,6,7,8,
{8}5,5,4,4,3,2,1,8h[8:2],
{16},,7h[8:2],,,,6,,,,,,5/4h[2:3],,,,
{8}8h[8:4],,,,,6,5,3h[8:3],
{8},,,,,,7,7,
{8}7-4[8:1],7,7b,,,,8,8,
{8}8-3[8:1],8,8b,,,3,2,1,
{4}78,56,34,1-6[8:2]/2-5[8:2],
{8}12,,,,4>1[8:2],,1>5[8:2],,
{8}5<1[8:6],,,,,,1<2[8:10],1,
{8},,2b,,1b,,8b,,
{8}2p7[8:6],,,,,,4,5,
{8},,,,1,1,1,1-5[8:2],
{8},,7,7-3[8:2],,,2,2-6[8:2],
{8},,5,5-1[8:2],,,4,4-8[8:2],
{8},6,6h[8:4],,,,,,
{8},,,,5<8[8:2],,8>4[8:2],,
{8}4>8[8:6],,,,,,8>7[8:10],8,
{8},,,,7h[8:3],,,,
{8}7q2[8:6],,,,,,5,4,
{8},,,,8,8,8,8-4[8:2],
{8},,2,2-6[8:2],,,7,7-3[8:2],
{8},,4,4-8[8:2],,,5-1[8:6],5h[8:7],
{1},
{8},,,,8b,,8b,,
{8}78,78,76,76,75,75,74,7h[8:2]/4h[8:2],
{8},,74,74,,,8,1,
{8}12,12,23,23,24,24,25,2h[8:2]/5h[8:2],
{8},,25,25,,,1,1-5[8:7],
{8},,7,7,,,3,3,
{8},2,,2b/8b,1b/7b,,5h[8:2],,
{8}6h[8:2],,7h[8:2],,1h[8:5],,8h[8:3],,
{8},,,,4b,,4b,,
{8}56,56,74,74,83,83,12,1h[8:2]/2h[8:2],
{8},,12,12,,,4,5,
{8}34,34,25,25,16,16,78,7h[8:2]/8h[8:2],
{8},,78,78,,,8,8-4[8:7],
{8},,2,2,,,6,6,
{8},7,,7b/1b,8b/2b,,7-5[8:1]/1-3[8:1],,
{8}7v4[8:1]/1v8[8:1],,7-5[8:1]/1-3[8:1],,7v4[8:1]/1v4[8:1],,,,
{8},,,,5,4,5,3,
{8}5h[8:9],2,1,8,7,6,4,3h[8:2],
{8},,,,4,5,4,6,
{8}4h[8:9],7,8,1,2,3,5,6h[8:2],
{8},,,,4,4,4,4-1[8:2],
{8},,7,7-3[8:2],,,2,2-6[8:2],
{8},,5,5-8[8:2],,,4,4>5[8:6],
{1},
{8}1-5[8:2],8-4[8:2],1>4[8:2],8<5[8:2],1-5[8:2],8-4[8:2],1>4[8:2],8<5[8:2],
{8}1-5[8:2],8-4[8:2],1>4[8:2],8<5[8:2],1-5[8:2],8-4[8:2],1>4[8:2],8<5[8:2],
{8}1-5[8:2],8-4[8:2],1>4[8:2],8<5[8:2],1-5[8:2],8-4[8:2],1b,8b,
{1},
E
&amsg_time=
&amsg_content=
