&title=防人想歌
&artist=onoken feat.夏川陽子
&first=-0.01
&des=KuSO
&lv_5=12+
&inote_5=(168)
{1},{4},,,{32},,,,,,7,6,{4}5-1[2:1],,,3>6[4:3],,,,5pp1[1:1],,,{8},3h[8:3],,,,,2,3,
{4}4-8[2:1],,,6<3[4:3],,,,4qq5[8:7],,,{8},6,,6,,18,2/7-3[8:1],,
1b,,24,,65,,7,7<4[4:1],,2V84[8:3],,2,,,6,6,75,,54,,4,5qq4[16:5],7,6<8[8:1],,,,2,1,2,
38,,57,,34,,2,2>5[4:1],,7V15[8:3],,7,,,3,2-8[8:1],7-5[8:1],2,7,,2,4pp5[16:5]/3>1[8:1],,34,,1h[4:1],,3,
4q5[2:3],5,6,,,,,,,,,,,,,,
{2}7h[2:1],5h[2:1],3<7[8:3]*q7[8:3],{4},4,4qq8[4:3],,,7,7h[4:1],{8}5,6,4,,2,,
{2}2h[2:1],4h[2:1],{8}5>2[8:3],5,,8<5[8:3],{4}8,,1h[4:1],2h[4:1],3h[4:1],4pp4[2:1]*qq4[2:1],,,,2b/7b,
3>8[4:1],8q4[4:1],7,7,6>3[4:1],3q7[4:1],2,2,
1>4[4:1],4p8[4:1],8v5[4:1],5,{8}7,7h[4:1],{8},4,{8}36,2,1,8,
{4}7<4[4:1],4q8[4:1],3,3,2<7[4:1],7q3[4:1],6,6,
5<8[4:1],8p4[4:1],4qq2[4:1],2,{8}3,4,5,4,{8}36,,8qq8[8:3],8,
2,,3qq4[8:3],3,7,,5,5,1h[8:1],7h[8:1],5h[8:1],8-4[8:1],4,,2,2,
34,2,35,2,36,2,37,2>5[8:1],38,{24}1,8,7,{16}6,,,,7,5,,3,{8}4,1,
2>5[8:1]/8,{16},1,{8}2,8,1-5[8:1]/7,{16},8,{8}1,7,8>3[8:1]/6>3[8:1],,86,,26,,1,8,
1-5[8:1]/2,{16},3,{8}1,2,8<5[8:1]/1,{16},2,{8}8,1,8V62[4:1]/6,,8-4[8:1],,8,,1b/6bqq1[8:3],,
3,,2,2h[4:1],,1,3/7-3[8:1],,8-4[8:1],,1-5[8:1],,2-6[8:1],,3>5[8:3],,2,,
3,3,3h[4:1],,4<7[8:1],3,24,,1>4[8:1],8,1-5[8:1]/7,,8,,
{8}7<4[8:1]/1,{16},8,{8}7,1,8-4[8:1]/2,{16},1,{8}8,2,1/3qq6[8:3]*qq7[8:3],,,,,,8,1,
8-4[8:1]/7,{16},6,{8}8,7,8<5[8:1]/1,2>5[8:1],8,2,1-7[8:1]*-6[8:1],,1-4[8:1]*-3[8:1],,1,,{16}6,5,6,5,
{8}7<3[4:1],,3q7[4:1],3,,2,{4}2pp4[4:1],4pp6[4:1],6,8,6>4[8:1]/2>4[8:1],
2<8[8:1]/6<8[8:1],6>4[8:1]/2>4[8:1],26,{8}18,27,,34,25,34,{4}1b-5[8:1]/5b,,
7,7>2[8:3],6,5,4,4<7[8:3],3,2,1,1>4[8:3],8,7,6,6<4[2:1],,,
5,5qq5[2:1],6,7,8,8qq8[2:1],1,2,3,3qq3[2:1],4,5,6,{8}6,4,5,3,26,,
7/8h[4:1],,6,2,8h[4:1],,2,6,8-3[8:1],8,4-7[8:1],4,3,,27,,
18,2,17,2,16,2,15,2,41,{16}3,2,3,2,3,2,4,2,5,2,6,2,7,2,{8}8<1[4:3],,,,,,,,,,,,,{16}8,1,{4}7-3[8:1]/2,
8>3[8:1]/7,6-2[8:1]*-4[8:1]/8,6b,
{8}8,1,8-4[8:1]/7,{16},6,{8}8,7,1-5[8:1]/2,{16},3,{8}1,2,1q5[8:1]/6pp6[4:1],,6>3[8:1]*p2[8:1],,,,7b/2bqq7[16:7],,
8,,6,6h[4:1],,1,3/7-3[8:1],,8-4[8:1]/7,,1-5[8:1]/8,,2-6[8:1]/1,,3>5[8:3]/2,,31,,
4-1[8:1],3,3h[4:1],,8>3[8:1],7,68,,5<8[8:1],4,2-6[8:1]/5,,1,,
7-4[8:1]/8-4[8:1],,7b/8b,,2-4[8:1]/1-5[8:1],,2b/1b,,8/6pp3[8:3],,4qq3[8:1],,,,
{16}8,1,8,1,{8}7-3[8:1],7,7/2,,8<6[8:1]/1p5[8:1],81,81,,3/5pp1[8:3],,1>3[8:1],,1b,,
{16}4qq4[4:1],8,4,8,{8}4-8[8:1],,6,6,,71,{4}7q5[4:1]/1,5q2[4:1],3,5,4>2[8:1]/8>2[8:1],
8<6[8:1]/4<6[8:1],4>2[8:1]/8>2[8:1],84,{8}81,72,,65,74,65,{4}8b-4[8:1]/4b,18,
6-1[8:1]/2,6>3[8:1]/3-8[8:1],36,{8}12,8-4[8:1]/4,,6,7,56,3b<6[8:1]*-6[8:1]/8b,,
&inote_6=(168)
{1},{4},,,{32},,,,,,7,6,{4}5-1[2:1],,,3>6[4:3],,,,5pp1[1:1],,,{8},3h[8:3],,,,,2,3,
{4}4-8[2:1],,,6<3[4:3],,,,4qq5[8:7],,,{8},6,,6,,18,2/7-3[8:1],,
1b,,24,,65,,7,7<4[4:1],,2V84[8:3],,2,,,6,6,75,,54,,4,5qq4[16:5],7,6<8[8:1],,,,2,1,2,
38,,57,,34,,2,2>5[4:1],,7V15[8:3],,7,,,3,2-8[8:1],7-5[8:1],2,7,,2,4pp5[16:5]/3>1[8:1],,34,,1h[4:1],,3,
4q5[2:3],5,6,,,,,,,,,,,,,,
{2}1h[4:1]/7pp2[4:5],2h[4:1],3<6[4:1],
