&title=Lethaeus
&artist=Silentroom
&first=0.35
&des=Λήθη Ζονγκ
&des_5=Λήθη Ζονγκ
&lv_5=14
&inote_5=
(155){4},,,,,,,,{1}5h[4:3]/1h[4:3],
{2}6h[2:1],{4}5h[4:1],4h[4:1],
{2}3h[4:3],5h[4:1],
{8}4-8[8:1],5-7-3[4:1],4,5,{4},{16}1,1h[16:1],{8},5-1[8:1],
4-2-6[4:1],5,4,,,,8h[8:3],
,,,4h[4:1],{4},2bqq7[4:3]/6bqq3[4:3],
{8},,,,,,,,,{16}1/8,
2,7,3,6,4,{8}5,3>1[8:1]/6<8[8:1],4z8[8:1]/5s1[8:1],3/6,
{4},3b/6b,2,{8}2,{16}6,6,
{4}3,{8}5/3-6[8:1],5h[16:5],{4}3,4,
4,6b/4b,4,{8}4pp4[4:1],{16}7,7,
{4}4qq4<8[2:1],8,8-2-4[4:1],4-8[8:1],
5,6b/3b,7,{8}7,{16}3,3,
{4}6,{8}4/6-3[8:1],4h[16:5],{4}6,5,
5,5b/3b,5,{8}5qq5[4:1],{16}2,2h[16:5],
{8}5pp5-1-7[2:1],{4},{8}1-3[8:1],{2},{4}4-1[8:1]*-7[8:1],
4b,{8}5,1/5,5,{16}5/2,2,
{8}5,5/3,5,4/5,5-7[8:1],4/5-1[8:1],5,5,
{4}8h[8:1],7b/2b,3,{8}4pp4[4:1],{16}7,7,
{4}4qq4<8[2:1],8,8-2-4[4:1],4-8[8:1],
5-8[8:1]*-2[8:1],5b,{8}4,8/4,4,{16}4/7,7,
{8}4,4/6,4,5/4,4-2[8:1],5/4-8[8:1],4,4,
{4}1h[8:1],2b/7b,6,{8}5,{16}2,2,
,6,1,7,2,8,3,7,2,6,1,7,2,8,3,1,
{4}2>5[8:1],{8}2,{24}1,8,7,{4}6-2[8:1],6/4<4[4:3],
6,{8}4,5,6,7,8,{24}3,1,3,
{4}1<6[8:1],{8}1,{24}2,3,4,{4}5-1[8:1],5,
5-7-1[4:1],1-3-5[4:1],5-1[8:1],{8}1,{16}2,2,
{8}8-6[8:1],1,8,{16}1,1,{8}8<5[8:1],2,{16}8,1,2,3,
{8}4-2[8:1],5,4,{16}5,5,{8}4>1[8:1],6,{16}4,5,6,7,
{8}8-4[8:1],1,8,{16}1,1,{8}8<5[8:1],2,{16}8,1,2,3,
{8}4-8[8:1],5,4,{16}5,5,{8}4>1[8:1],6,{16}4,5,6,7,
{4}8-6-4[4:1],{8}4p6[4:1],{24}8,1,2,{4}3>6[2:1],3,
6>1[16:7],{8}1,8,7,6,5,{24}4,5,6,
{4}7q6[4:1],{8}7,{24}1,2,3,{4}4-8[8:1],4,
6-8-3[4:1],3-1-6[4:1],4-8[8:1],4,
{8}5<8[8:1],2>5[8:1],5,2,1,8,{16}7,5,6,5,
{8}4>1[8:1],7<4[8:1],4,7,8,1,{16}2,4,3,4,
2,2,5,5,1,1,6,6,8,8,7,7,1,1,{24}6,5,4,
{16}2,2,{24}7,6,5,{16}3,3,{24}8,7,6,{2}4h[4:1],
{8}3b/5h[1:3],{4},{24}1,2,3,{2}4h[4:1],
{4}3,{8}2,1,8,7,6,{24}4,3,2,
{8}1h[4:1],{4},{24}1,2,3,{2}4h[4:5],
{1},{8}6b/4h[2:5],
{4},{24}8,7,6,{2}5h[4:1],
{4}6,{8}7,8,1,2,3,{24}5,6,7,
{8}8h[4:1],{4},{24}8,7,6,{2}5h[2:1],
{4}3h[4:3],{2},{4}6b,
{8}4h[4:1]/7h[4:1],{4},{24}6,5,6,{2}5h[2:1],
{4}7h[1:1],6,5,4,
3h[1:1],2,1,8,
{8}7h[4:3],{4},{16}5,4,{2}3h[4:1],
{8}2/8,8,2/7,7,6/3,6,5/3,5,
6/4,4,6/3,3,2/7,2,1/7,1,
{16}8,2,7,3,6,4,5,3,6,2,7,1,8,2,7,1,
{8}8h[16:3],{16}2,2,7h[16:3],3,{8}3,4,6,2>5[8:1],5-1-3-8[8:3],
2b,{4},{24}7>4[2:1],6,5,{2}4,
{4},{8}5,6,7,8,8h[4:1],{24}2,3,4,
{8}5-3-1-7[8:3],{4},{24}7-3-6-4[8:3],6,5,{2}4,
{4}7,7,8/1,3qq5[4:3]/6<1[8:1],
{8}6b,{4},{24}8,7,6,{2}5<4[4:3],
{4},{8}8,8,7,7,6h[4:1],{24}5,4,3,
{8}2-8-4[2:1],{4},{24}7,6,5,{2}4-2-6[2:1],
{4}6-4-8[2:1],7,8-2-6[2:1],7,
{8}7h[4:1],{4},{24}5/8,4/7,3/6,{2}2-8-3[4:1]/5-7-4[4:1],
{4},{24}2/6-3[8:1],1,{6}8,6/2-7[8:1],{12},{24}2/5-2[8:1]*-3[8:1],6,{6}7,
{4}5-7-1[4:1],1-3-5[4:1],5<1[4:1],1>5[4:1],
{8}5pp5[4:1],{4},{16}2,3,{4}4-7[8:1]*-8[8:1],4,
{8}1h[4:1]/6h[4:1],{4},{24}8/7,1/6,2/5,{4}3-1[8:1]/4-6[8:1],3-7[8:1]/4-8[8:1],
3/4,{8}1/6,2,3/7,6,5/2,{24}3,4,3,
{4}4h[4:7],3,5,2,
6,1,7,8b,
{32}1v2[8:1],2,3,4,5v6[8:1],6,7,8,{8}1<2[2:1],5,{2}1,
{8},8,7,6,{4}5h[16:3],{16}3,1,2,8,
{4}1-5[8:1],{16}1/8>3[8:1],7,{8}6h[16:1],{16}5/8-4[8:1],6,{8}7h[16:1],{16}8/1<6[8:1],2,{8}3h[16:1],
{16}4/1-5[8:1],3,{8}2h[16:1],{16}1/8>3[8:1],7,{8}6h[16:1],{16}5b/8,6,7,8,1,2,3,4,
{8}5h[4:1],{24}2-6[8:1],3h,4h,{8},7-1-3[4:1],,3-5-7[4:1],,1h[8:1],
,{16}2,3,4,5,6,7,8h[8:1],{8},{16}7,1-5[8:1],8,2,7,
{4}1,{24}3,2h,1h,5,{48},{16}4,{24}6,7h,8h,4,{48},{16}5,{24}3,2h,1h,5,{48},{16}4,
{24}7,6h,5h,1,{48},{16}8,{24}2,3h,4h,8,{48},{16}1,{24}7,6h,5h,1,{48},{16}8,{32}1b,2,3,4,5,6,7,8,
{16}5/1,5,2,2,6,6,3,3,7,7,4,4,6,5,6,5,
7,4,8,3,1,2,8,3,7,4,{8}6,,{24}5,6,4,
{4}7,{32}2/8,3,4,5,6,7,8,1,{8}2>5[8:1],6-2[8:1],2,6,
{4},{16}1,7,1,7,{24}2h,3h,4h,8,{48},{16}8,4,4,6,6,
2,1,2,1,3,8,2,1,4,7,2,1,3,8,{24}2h,3h,4h,
1h,8h,7h,5h,6h,5h,{8}7h[8:1],{24}4h,3h,2h,1h,8h,7h,6h,5h,4h,{32}3h/8-4[8:1],7,6,5,4,3,2,1,
{1}8b-6-2-4[4:7]*-2-6-4[4:7],
E
