&title=星降る夜と一輪の花
&artist=seatrus
&first=0
&des=TragiC
&lv_5=14
&des_5=TragiC
&inote_5=
(177){4},{8},,,,,,,,,,,,,,1/8h[1:2],
{16},,,,,,,,E8,E7,{4}E6,
{16},,,,,,,,,,E3,E4,{4}E5,
{8}2h[1:2],{16},,,,,,,,E1,E2,{4}E3,
{16},,,,,,,,,,E4,E5,{4}E6,
{8}7,4,5,4,6,3,4,3,
7,4,5,4,6,3,4,5,
2,5,4,5,3,6,5,6,
2,5,4,5,3,6,5,4,
3/7v4[2:1],{16},,,,,,,,E1,E2,{4}E3,
{8}5<8[2:1],{16},,,,,,,,E3,E4,{4}E5,
{8}2v5[2:1],{16},,,,,,,,E1,E8,{4}E7,
{8}4>1[2:1],{16},,,,,,,,E7,E6,{4}E5,
2h[8:1],2h[8:1],{8}2h[8:1],{16}E5,E6,{4}2h[8:1]/E7,
3h[8:1],4h[8:1],5h[8:1],6h[8:1],
{1}7h[1:1]/Cf,
{12}4,3,2,8,7,6,3,2,1,7,6,5,
{4}2xh[8:1]/4q8[2:1],2h[8:1],2h[8:1],2h[8:1],
3xh[8:1],{8}3h[8:1]/E1,E8,3h[8:1],E7,3h[8:1]/E6,E5,
{4}2xh[8:1],{8}2h[8:1],4xpp8[8:9],{4}2h[8:1],2h[8:1],
1xh[8:1],1h[8:1],1h[8:1],1h[8:1],
{8}2,2,4,4,3,3,5,5,
{16}4,6,4,6,3,7,3,7,{32}2,3,4,5,6,7,8,1,2x>6-1-4b[1:1],3,4,5,6,7,8,1,
{2}2/C,5x-8[4:1],
{8},,,,3,3,{16}6,5,{8}6,
4b,4,5/3,2h[4:1],{16},,B5,B6,{4}1/B7,
{8}2,2,3/4,5h[4:1],{16},,E2,E3,{4}6/E4,
{8}7,7,6/4,3h[4:1],{16},,B6,B7,{4}2/B8,
{8}3,3,4/5,6h[4:1],{16},,E3,E4,{4}7/E5,
{8}8h[4:1],5,4,3,7h[4:1],2,3,4,
6h[4:1],5,4,3,5h[4:1],2,3,4,
3h[4:1],5,6,7,2h[4:1],6,5,4,
1h[4:1],5,6,7,8/2,8/2,{16}3,4,{8}3,
5,5,4/6,7h[4:1],{16},,B4,B3,{4}8/B2,
{8}7,7,6/5,4h[4:1],{16},,E8,E7,{4}3/E6,
{8}2,2,3/5,6h[4:1],{16},,B3,B2,{4}7/B1,
{8}6,6,5/4,3h[4:1],{16},,E7,E6,{4}2/E5,
{8}5/1,1,2,2,3,{16}3/E8,E7,{8}4/E6,4,
5,5,6,6,7,8,1,2,
4,4,5/3,6,7,8>7[8:3],1,2/8b,
,,{4}1h[4:1],{8}8,6b/2b,{4}6x-1[8:1]/2x-4[8:1],
6/2,{16}8-3-5-7[8:3],5,8,5,{4},,{24}1bx/E7,
B6,B5,E5,{6}2x,3x,4x,5x,6x,
{24}7xh[8:1]/B5,C,B1,A1,{48},,,,{16}8,2,8,2,1,8,7,6,E5,B4,B3,E3,
8,7,6,5,E4,B3,B2,E2,7,6,5,4,1-6[8:1],2,3,4,
{4}5/1b,{16}4-7-1-3[8:3],8,4,8,{4},,{24}5bx/E4,
B3,B2,E2,{6}6x,7x,8x,1x,2x,
{24}3xh[8:1]/B8,C,B4,A4,{48},,,,{16}2,5,2,5,1,2,3,4,E6,B6,B7,E8,
2,3,4,5,E7,B7,B8,E1,5,4,3,2,8,7,6,5,
{4}4/3bxh[4:1],{24}2-5-7-1[8:3],1,8,7,6,5,{2}2/4,
{24}7bx/E2,B2,B3,E4,{6}6x,5x,4x,3x,2x,
{24}1xh[8:1]/E6,B6,B7,E8,{48},,,,{16}2,6,2,6,1,2,3,4,E6,B6,B7,E8,
2,3,4,5,E7,B7,B8,E1,3,4,5,6,7-4[8:1],8,1,2,
{4}7b/3v5[4:1],{8}5-3-1-6[8:3],6,{6}7x,7x,7x,
{4}8xh[8:1]/5p2[2:1],8xh[8:1],8xh[8:1],8xh[8:1],
{1}1h[1:2]/7qq5qq3qq1qq7[4:7],
{8},,,,,,,,,,,,,2,
{4}4/2,
{8},3,{4}3/5,{8}6,6,{16}4,5,{8}4,
{2}E7/3>5[4:11],E8,
E1,E2,
{1}E3,
{2},,E3/6<4[4:11],
E2,
E1,E8,
{1}E7,
{2},,8h[1:3]/E2,
E3,
E4,E5,
{1}E6,
{2},,1h[2:3]/E8,
E7,
E6,E5,
{1}E4/1x-4[4:5],
{8},,,,6,6,{16}3,4,{8}3,
{4}5xh[8:1]/2-4-8[2:1],5h[8:1],5h[8:1],5h[8:1],
6xh[8:1],{8}6h[8:1]/E1,E2,6h[8:1],E3,6h[8:1]/E4,E5,
{4}7xh[8:1],{8}7h[8:1],5xqq1[8:9],{4}7h[8:1],7h[8:1],
8xh[8:1],8h[8:1],8h[8:1],8h[8:1],
{8}7,7,5,5,6,6,4,4,
{16}5,3,5,3,6,2,6,2,{32}7,6,5,4,3,2,1,8,7x<3-8-5b[1:1],6,5,4,3,2,1,8,
{2}7/C,4x-1[4:1],
{8},,,,2,2,{16}6,5,{8}6,
4b/7,7,{16}1,8,{8}2h[8:1],{16}4,1,5,2,6,3,{8}7-4-8[4:1],
5x,7,3,2h[4:1],7,{16}7,3,8,7,6,5,
2,4,3,4,{8}2h[8:1],{16}7,1,8,1,{8}7h[8:1],{16}4,6,3,5,
2,4,{8}1h[8:1],{16},,2,3,{4}8/4h[4:1],{16}1,8,7,6,
{8}3-5[8:1],5-2[8:1],3,7-4[8:1],,7-1[8:1],1-5[8:1],7,
2,3h[4:1],,4,{16}2,5,3,6,4pp2[2:1],7,5,8,
{4}4,8,{8}7,1-5[8:1],6,1,
{16}7,4,7,4,6,3,6,3,5,6,7,8,4,3,2,1,
{8}8/6h[8:1],{16}1,5,3b,7,{8}5h[8:1],{16}8,4,7qq3[4:1],5,6,4,{8}7,
,2-6[8:1],1,2,8,{16}5,7,4,3,2,1,
{8}8/7,6h[4:1],{16}3,2,1,8,7/4,6,5,4,3/6,2/7,{8}1bx-5[8:1]/8bx-6[8:1],
,1b-3[8:1]/8b-4[8:1],,8b/1b-5-3-8[8:3],,7b-4[8:1],6b,7b,
,5h[8:1]/1h[8:1],,2/6,7-3[8:1],3-5[8:1],7,2-8-4[4:1],
,2/7,6,5-7-3[4:1],,3/5,2,1-3[8:1],
4,1-5[8:1],5-2[8:1],1,6,7,8-4[8:1],3-1[8:1],
8,3-7[8:1],5,3-5[8:1],6,3-1[8:1],7,3,
8,8,7/1,7/1,6/2,6/2,5/3,5/3,
4/6,4/6,7/3,7/3,2/8,8/2,1/7,7/1,
{16}2,6,2,6,2,6,2,6,3,7,3,7,3,7,3,7,
4,6,5,6,4,6,5,6,4-1[8:1],6,5,6,{4}4,
{8}6h[4:1]/2pp5[4:3],{16},,,,7x,8x,{8}1xh[4:1],{16},,,,8x,7x,
{8}6xpp5[2:1],{16},,,,4x,3x,{8}2xh[4:1],{16},,,,1x,2x,
3x/4,5,6,7,E1,B1,B2,E3,5,6,7,8,E2,B2,B3,E4,
6,7,8,1,E3,B3,B4,E5,7,6,5,4,3/7,2,1,8,
{8}3h[4:1]/7qq4[4:3],{16},,,,2x,1x,{8}8xh[4:1],{16},,,,1x,2x,
{8}3xqq4[2:1],{16},,,,5x,6x,{8}7xh[4:1],{16},,,,8x,7x,
6x/5,4,3,2,E1,B8,B7,E7,4,3,2,1,E8,B7,B6,E6,
3,2,1,8,E7,B6,B5,E5,{4}2-5[8:1],2/6,
{8}7h[4:1]/3qq8[4:3],{16},,,,6x,5x,{8}4xh[4:1],{16},,,,5x,6x,
{8}7xqq8[2:1],{16},,,,1x,2x,{8}3xh[4:1],{16},,,,4x,3x,
2x/1,8,7,6,E5,B4,B3,E3,8,7,6,5,E4,B3,B2,E2,
7,6,5,4,E3,B2,B1,E1,7,6,5,4,3/7,2,1,8,
{8}7/5,5/7,4/6,4/6,3/5,5/3,2/4,4/2,
{16}1,5,1,5,1,5,3,4,2,6,2,6,2,6,1-6-3-7-4-1b[8:13],7,
{1}5h[1:2],
,E1,
E8,
E7,
,E5,
E4,
E3,
E
