&title=Thaumaturgy
&artist=Attoclef
&first=0
&des=GTDD
&whole_bpm=200
&clock_count=4
&des_4=GTDD
&demo_seek=37.2
&demo_len=20.4
&lv_4=12+
&inote_4=(200){4},,,,
1V35V71[4:25]*<1[4:25],,,,,,,
,,,,,,,
,,,,,,,
,,,,,,,{8}
1q5[8:1],,8,,7,7,5,4h[8:3],,6,6,,35,,
2,2h[8:3],,6,6h[8:3],,4,3,2/4-8[8:1],,2-5[8:1],,,,
8-4[8:1],,1,,2,2,4,5h[8:3],,3,3,,64,,
7,7h[8:3],,3,3h[8:3],,5,6,7/5-1[8:1],,7^4[8:1],,,,
2pp7[4:3],,5,,5,,5,,
5pp1[4:3],,8,,1,,2,,
3V51[4:3],,8,,8,,8,,
8-5-3[4:3],,2,,2,,2,2,
2^7-4[4:3],,4,,5,,6,,
7qq3[4:3],,3,,2,,1,,
8>5[4:3],,5,,6,,7,,
8-4[4:1],,4^2[4:1]*^6[4:1],,,,,,
7,7,5,5,8,8,3,3,
4,4,2,2,8,7h[8:3]/1,,,
2,2,4,4,1,1,6,6,
5,5,7,7,1,2h[4:1]/8,,,
6,6,4,4,8,8,2,2,
5,5,1,1,7,6h[8:3]/8,,,
3,3,5,5,1,1,7,7,
4,4,8,8,1/7^4[8:1],,,,
2b-4[8:1]/5xb,,6-8[8:1],,3-5[8:1],,7-1[8:1],,
4^1[8:1],,,7^4[8:1],,,2-6[8:1],,
8-4[8:1],,3-1[8:1],,5-7[8:1],,1<2[4:3]*>8[4:3],,
,,,,,,,,{16}
3h[16:3],,,2h[16:3],,,1,,1-5[8:1],,,,8,,,,
6h[16:3],,,7h[16:3],,,8,,8p4[8:1],,,,2-4[8:1],,,,{8}
1-5[8:1],,2-6[8:1],,1-7[8:1],,2,,{16}
3h[16:5],,,6,,6,,,7h[8:3],,,5,,,5,,{8}
7b-5[8:1]/4b,,3-1[8:1],,6-4[8:1],,2-8[8:1],,
5^8[8:1],,,2^5[8:1],,,7-3[8:1],,
1-5[8:1],,6-8[8:1],,4-2[8:1],,8>7[4:3]*<1[4:3],,
,,,,,,,,{16}
6h[16:3],,,7h[16:3],,,8,,8-4[8:1],,,,1,,,,
3h[16:3],,,2h[16:3],,,1,,1q5[8:1],,,,7-5[8:1],,,,{8}
8-4[8:1],,7-3[8:1],,8-2[8:1],,7,,{16}
6h[2:1],,,5,,4,,,3h[4:2],,,6,,,7,,{4}
8b^1-6^7-4^5-2^3-8[4:29],,,,
,,,,
,,,,
,,,,
,,,,
,,,,
,,,,
,,,,{12}
B2,B3,B4,B5,,,B7/E8,,,,,,
E2,E3,E4,E5,,,B8/E1,,,,,,
B7,B6,B5,B4,,,B2/E2,,,,,,
E8,E7,E6,E5,,,B1/E1,,,,,,
B3,B2,B1,B8,,,B6/E6,,,,,,
E4,E3,E2,E1,,,A5/D6,,,,,,
B6,B7,B8,B1,,,B3/E4,,,,,,
E6,E7,E8,E1,,,A4/D4,,,,,,{16}
8h[16:3],,,7h[16:3],,,6,,6-1[8:1],,,,2>8[2:1],,,,
7h[2:1],,,,,,,,,,,1,,,2,,
3-5[8:1],,,,7-1[8:1],,,,3h[2:1],,,,,,8,,
8-4[4:1],,,,4^7[4:1]*^1[4:1],,,,,,,,,,,,
7h[16:3],,,6h[16:3],,,5,,5-1[8:1],,,,,,,,
2h[16:3],,,3h[16:3],,,4,,4-8[8:1],,,,7-1[8:1],,,,
3-5[8:1],,,,7-1[8:1],,,,3h[2:1],,,,,,8,,
8>7[2:1],,,,,,,,1xh[2:1],,,,,,,,{8}
,,B5/E6,,B6/E7,,B7/E8,,
4^1[4:1],,,,5^8[4:1],,,,
,,B4/E4,,B3/E3,,B2/E2,,
8^5[4:1],,,,1^4[4:1],,,,
,,E8/D8,,E1/D1,,E2/D2,,
7^4[4:1],,,,3^8[4:1],,,,
6p4>5[4:6],,,,,,,,
,,,,,,,,{16}
1h[16:3],,,2h[16:3],,,3,,3-8[8:1],,,,7<1[2:1],,,,
2h[2:1],,,,,,,,,,,8,,,7,,
6-4[8:1],,,,2-8[8:1],,,,6h[2:1],,,,,,1,,
1-5[4:1],,,,5^2[4:1]*^8[4:1],,,,,,,,,,,,
2h[16:3],,,3h[16:3],,,4,,4-8[8:1],,,,,,,,
7h[16:3],,,6h[16:3],,,5,,5-1[8:1],,,,2-8[8:1],,,,
6-4[8:1],,,,2-8[8:1],,,,6h[2:1],,,,,,1,,
1<2[2:1],,,,,,,,8xh[2:1],,,,,,,,{4}
B1f,,B2,,
B3,,B4,,
B5,,B6,,
B7,,,,{16}
3h[16:3],,,2h[16:3],,,1v4[8:1],,,,,,5,,,,
6h[16:3],,,7h[16:3],,,8v5[8:1],,,,,,4,,,,
2h[16:3],,,3h[16:3],,,4,,5h[16:3],,,6h[16:3],,,7,,
7-2[8:1],,,,3-6[8:1],,,,8-4[8:1],,,,1<1[1:1],,,,
Cf,,,,,,,,,,,,,,,,
8x,,,5x/7x,,,4x/6x,,,3x/5x,,,4x/2xh[4:27],,,,{4}
6bh[4:26],,,,,,,
,,,,,,,
,,,,,,,
,,,,,,,{8}
8p4[8:1],,1,,2,2,4,5h[8:3],,3,3,,64,,
7,7h[8:3],,3,3h[8:3],,5,6,7/5-1[8:1],,7-4[8:1],,,,
1-5[8:1],,8,,7,7,5,4h[8:3],,6,6,,35,,
2,2h[8:3],,6,6h[8:3],,4,3,24,,,,,,{8}
1bV35[8:3],,7,,8,8<2[8:5],,3h[8:7],,,,,,,
4<1[2:1],,1,,2,,3^6[4:1],,7,7,7^2[4:1],,,,
3V51[8:3],,6,,7,7>5[8:5],,2h[8:5],,,,,,,{6}
8x/2x,8x/2x,8x/2x,{8},{4}7b^4b[8:1],8b^3b[8:1],5b-1b[8:1],{8}2b,,,{8}
8bV64[8:3],,2,,1,1>7[8:5],,6h[8:7],,,,,,,
5>8[2:1],,8,,7,,6-3[4:1],,2,2-7[4:1],,5,5,,
6V48[8:3],,3,,2,2>8[8:5],,6h[8:5],,,,,,,{16}
2,8,2h[8:1],,,,7,1,7h[8:1],,,,3,4,3,4,{4}3^8b[8:1],4b^7b[8:1],1b-5b[8:1],
8b,
