&title=アクセラレイト
&artist=Vivid BAD SQUAD
&first=0
&lv_5=14.5
&des=NaTsuYu
&inote_5=(170){4},,,,,,,,{1}5<8[4:3],
4q1[4:3],
5p8[4:3],
{2}4>1[4:3],{16}7,,,6,,,{8}5,
5,2h[4:1],B1,8h[4:1],B3,4h[4:1],B7,6h[4:1],
E3,1h[4:1],B8,7h[4:1],B2,3h[4:1],B6,5h[4:1],
E2,8h[4:1],B7,6h[4:1],B5,4h[4:1],B3,2h[8:1],
{1}Cf,
{8},E4,{16}B2,E7,B8,A1,,A5,{8}E4,{16}B2,E7,B8,A1,
,A5,{8}E4,{16}B2,E7,B8,A1,,A5,B4,E3,{4}B8/A1/E7,
{8}6x/4x,1x/2x,{16}6x/4x,7,8,1,6,7,{8}8,{16}6x/4x,7,8,1,
6,7,{8}8,{16}6x/4x,7,8,1,6,7,{8}8,{16}6x/4x,3,2,1,
{8}8x/7x,5x/3x,{16}7x/8x,1,2,3,8,1,{8}2,{16}8x/7x,1,2,3,
8,1,{8}2,{16}8x/7x,1,2,3,8,1,2,3,4x/1x,8,7,6,
{8}5x/3x,8x/7x,{16}3x/5x,2,1,8,3,2,{8}1,{16}3x/5x,2,1,8,
3,2,{8}1,{16}5x/3x,2,1,8,3,2,{8}1,{16}5x/3x,6,7,8,
{8}1x/2x,4x/6x,{16}1x/2x,8,7,6,1,8,{8}7,{16}1x/2x,8,7,6,
2x/7x,1,8,2x/7x,1,8,2x/7x,1,8,7x/2x,1,8,{8}7x/2x,8bx/1bx,
,6/5h[8:1],7,6/5h[8:1],7,{16}6,5,{8}7,6/5h[8:1],
7,6/5h[8:1],7,6/5h[8:1],6h[8:1],{16}5h[8:1],7h[8:1],,,{8}5h[8:1]/8h[8:1],
,3/4h[8:1],2,3/4h[8:1],2,{16}3,4,{8}2,3/4h[8:1],
2,3/4h[8:1],2,3/4h[8:1],3h[8:1],{16}4h[8:1],2h[8:1],,,{8}4h[8:1]/1h[8:1],
,7/8h[8:1],6,7/8h[8:1],6,{16}7,8,{8}6,7/8h[8:1],
6,7/8h[8:1],6,7/8h[8:1],7h[8:1],{16}8h[8:1],6h[8:1],,,{8}8h[8:1]/5h[8:1],
,2/1h[8:1],3,2/1h[8:1],3,{16}2,1,{8}3-6b[8:1],2/1h[8:1],
{2}3b,{16}A6f,,,E1f,,,{8}A3f,
8h[8:3],,,1h[8:1],8h[8:1],{16}2,8,1x,8,{8}2x,
{16}7x,1,8x,1,7x,1,8x,1,8x,7,6,5,1x,2,3,4,
{12}8h[8:3],{24},,,,,,,,7,6,{4}5h[4:1],{8}1xh[4:1],7x,
{16},,8x,1,7x,1,{8}8x,{16}1x,2,3,4,8x,7,6,5,
{8}4x/1h[8:1],4,5/1h[8:1],5,6/1h[8:1],6,7/1h[8:1],7,
2/8h[8:1],2,3/8h[8:1],3,4/8h[8:1],4,5/8h[8:1],5,
8/3h[2:1],7,6,5,4h[2:1],2,1,8,
{16}7,7,5,5,3,3,1,1,4,4,2,2,6,6,8,8,
{1}E3h[1:4],
E7h[1:3],
B3h[1:2],
{2}B6h[1:1],{16}B4h[2:1],,,B5h[16:5],,,{8}E5h[8:1],
{16}E4,E3,E2,E1,E8,E7,E6,E5,E4/E6,E7,E8,E1,E2,E3,E4,E5,
E6/E4,E3,E2,E1,E8,E7,E6,E5,E4/E6,E7,E8,E1,E2,E3,E4,E5,
{32}5x,6x,7x,8x,1x,2x,3x,4x,5x,6x,7x,8x,1x,2x,3x,4x,5x,
{32}6x,7x,8x,1x,2x,3x,4x,5x,6x,7x,8x,1x,2x,3x,4x,
{2}1bx/5bx,{4}3h[4:1],1h[4:1],
2pp5[2:1],{8}2/7,6-8[8:1],,6,,1/6,
{4}8/7qq4[2:1],{8}7/2,3-1[8:1],,3,,1-6[4:1],
1,6-3-8[4:1],6,8-5-2-7[4:1],8,7,,6-1[8:1],
5,4,3-6[8:1],2,1,8-3[8:1],7,6,
5b,,,7h[8:1],5h[8:1],3h[8:1],5h[8:1],7h[8:1],
{4}1h[4:1],{8}3h[8:1],1h[8:1],7h[8:1],5h[8:1],3h[8:1],1h[8:3],
8h[4:1],,,1x/8x,4/3,4/3,1/7,1/7,
6/5,6/5,8/2,2/8,4w8[8:1]/5w1[8:1],4/5,{4}4b/5b,
{8}5/2,4/3-6-1-5[8:3],,3/8-4[8:1],,8,,3/8,
4/7,5/6-3-8-4[8:3],,6/1-5[8:1],,1,,2<8[8:1],
7q3[8:1],2>5[8:1],7<5[8:1],2q6[8:1],7,2,,1<6[8:1],
2,3,4>1[8:1],5,6,7<4[8:1],8,1,
2bh[4:1],,,2/1,3,4/5,6,7/8,
{4}2/5,{8}4/7,3,2/8,7,{4}3/6,
{32}3,2,1,8,7,6,5,4,3,2,1,8,7,6,5,4,3,2,1,8,7,6,{16}5,,,{8}5/3,
2,1/5,6,1/7,{16}4/6,,,3/5,,,{8}2/8,
1/7,4/3,{16}7/1,6,5,4,7,6,{8}5,{16}7/1,6,5,4,
7,6,{8}5,{16}7/1,6,5,4,7,6,{8}5,{16}7/1,2,3,4,
{8}5/6,8/2,{16}6/5,4,3,2,5,4,{8}3,{16}5/6,4,3,2,
5,4,{8}3,{16}5/6,4,3,2,5,4,3,2,{4}1h[16:3]/7h[16:3],
{8}8/2,5/6,{16}2/8,3,4,5,2,3,{8}4,{16}2/8,3,4,5,
2,3,{8}4,{16}8/2,3,4,5,2,3,{8}4,{16}8/2,7,6,5,
{8}4/3,1/7,{16}4/3,5,6,7,4,5,{8}6,{16}4/3,5,6,7,
3x/6x,4,5,3x/6x,4,5,3x/6x,4,5,6x/3x,4,5,6x/3x,4,5,3x/6x,
4,5,4,5,4,5,4,5,{24}4,5,4,5,4,5,4w8[8:1],5,4,5,4,5,
{1}4b,
E
