&title=FFT
&artist=cybermiso
&first=-0.1
&des_5=Attiesal
&lv_5=13+
&des=Attiesal
&inote_5=(180)
{4},,
{4}2bp8[4:3]/6b,,,,E6h[4:3],,,C,
{4}7bq1[4:3]/3b,,,,E4h[4:3],,,C,
{4}2bp8[4:4]/7bq1[4:4],,,,,,,E5,3h[4:1]/6h[4:1],,,,
{16}E8,E7,E6,,E2,E3,E4,,E1,C,E5h[8:3],,,,,,
{8}E3h[4:1],,7,E5h[4:1],,1,E3h[4:1],,7,E5h[4:1],,1,E3h[4:1],,C,,
{8}E7h[4:1],,2,E5h[4:1],,8,E7h[4:1],,2,E5h[4:1],,8,E7h[4:1],,C,,
{4}E3,1-4[16:3],E7,8-5[16:3],E3,1-4[16:3],E7,8,8-5[8:4]/1-4[8:4],,,,
{4}2-5b[8:1]/7-4b[8:1],,C,E7/B7/B3/E3,
{4}1-5[8:1],5,{8}7-5[8:1],3-1[8:1],A7,A3,{4}4-8b[8:1],8,{8}2-6[8:1],17,6,,
{8}7h[8:1],5,6h[8:1],4,5h[8:1],3,4,4h[8:2],{32}E2,E1,E8,E7,E6,E5,E4,E3,{4}E2,{8}7x-3[8:1],18,{4}2,
{8}1>5[4:1],,5,6,7>3[4:1],,4,5,6-2b[8:1],,6bh[8:1],,,4/8,4/8,,
{4}2-6[8:1]/6,2bx/6,7-3[8:1]/3,7bx/3,{4}1-3[8:1]/5-7[8:1],5bx-2[8:1]/1bx-6[8:1],1bx-5[8:1]/5bx-1[8:1],1bx/5bx,{8}3h[8:1]/7h[8:1],,37,,
{8}2-4[8:1],6-8[8:1],A2,A6,{4}5-1b[8:1],1,{8}7-3[8:1],28,3,,
{8}2h[8:1],4,3h[8:1],5,4h[8:1],6,5,5h[4:1],{32}E8,E1,E2,E3,E4,E5,E6,E7,{4}E8,{8}2x-6[8:1],18,7,,
{8}8<4[4:1],,4,3,2<6[4:1],,5,4,3,2,1h[4:2],,{8}E8,C,{4}E4,
{8}2-6b[8:1],6,2b,7,7-3b[8:1],3,7b,2,1w5[8:1],,1,,{8}E7/B6,B2/E3,Cf,,
{8}5x-7[8:1],1-5[8:1],5,1,,8-4[8:1]/4-2[8:1],7,84,,1-5-7b[4:1],A5h[8:4],1,,,8b,,
{8}4-2[8:1],8-4[8:1],4,8,,1-5[8:1]/5-7[8:1],2,15,,8-4-2b[4:1],A4h[8:4],8,,,1b,,
{8}5-7[8:1],1-5[8:1],5,1,,8-4[8:1]/4-2[8:1],7,84,,1-5-7-3b[8:3],A5h[8:4],1,,,A3f/D3/D4,,
{8}4x/8x,7,62,3,8h[4:1],4h[8:1],,
{4}E7h[4:3],Ch[4:2],E3h[4:1],,{8},
{4}4h[8:1]/5h[8:3],6h[8:3],7h[8:3],8h[8:3],1h[8:3],2h[8:3],3h[8:3],4h[8:2],{8}5,54,,36,E7/E3,,{16}E1,C,{8}E5h[8:7],,B6,B7,B8,B1,B2,B3,,
{8}7-3[8:1],3-7[8:1],,,1s5b[16:3]*v3[16:3],,,,,
{8}2,6h[4:1],2h[8:1],,7/3,4b/8b,,
{8}8h[8:1],6,7h[8:1],5,6h[8:1],4,5>3[8:1],3>1[8:1],1<5[4:1],,C,,
{32}D5,D4,D3,D2,D1,D8,D7,D6,{4}D5,
{1}8>8>2[4:21]*<8<2[4:21]/Cf,,,,,,
{8}6h[4:3]/4h[8:2],,,4h[8:2],,,4,,
{8}3h[4:3]/5h[8:2],,,5h[8:2],,,5,,
{4}E7h[4:7],E8h[8:1],E1,E2,E3h[8:1],E4,E5h[4:1],E6,
{4}E3h[4:7],E2h[8:1],E1,E8,E7h[8:1],E6,E5h[4:1],E4,
{8}7,7,8,8,1,1,2,2,6,6,65,5,54,4,43,3,
{4}3h[4:4]/7>7[4:3],,,,A7h[4:1],,1w5[8:1],A1,
{8}1x/5x,E3,48,E7,1-5-3[4:1],5-7[8:1]*-7[8:1],,,,{16}28,37,46,,{8},
{8}1>3[8:1]/5<7[8:1],15,,,
{8}48,E7,15,E3,8-4-6[4:1],4-2[8:1]*-2[8:1],,,,
{8}Ch[8:5],E7,E8,E1,E2,E3,,
{4}7qq5[8:1]/3qq1[8:1],C,2-6[8:1]/6-2[8:1],26,
{4}4h[4:3]/A8h[4:1],B8h[4:1],Ch[4:1],,2qq6[8:5]/6qq2[8:5],,,,8w4[8:1],,
{8}E1/B8,E3/B2,E7/B6,E5/B4,Chf[4:1],,
{8}1b-5[8:1],,8-4[8:1],E7,1-5[8:1],E3,8-4[8:1],E7,1bh[4:1],,{16}5,6,7,8,1/C,2,3,4,
{4}5/B1h[4:1],{16}7bxh[16:3],,{32}E7,B6,B5/3x,,{16},,,2bxh[16:3],,{32}E3,B3,{16}B4/6x,,,,1xbh[8:2]/8xbh[8:2],,{8},,24,3,57,6,1p4[8:1]/8q5[8:1],,{32}E1,Chf[384:1],{16}E5,,,{8},2b/7b,,1>4[4:1],8,7,6,5<8[4:1],4,3,2,1,1v6[8:1]*v4[8:1],,C,,
{8}B7/B3,4xh[8:1]/8xh[8:1],,{4}4-2[8:1]/8-6[8:1],8-3[8:1]/4-7[8:1],8-4[8:1]/4-8[8:1],48,
{8},E3h[64:15]/E7h[64:15],,1bx/5bx,,
{8}E1/E5,2,E8/E4,6,1-5[8:1],5<7[8:1],1,A5h[4:1],,8,8,,
{8}E3h[64:15]/E7h[64:15],,4bx/8bx,,
{8}E1/E5,7,E2/E6,3,8-4>2b[4:1],4>2[8:1],8,A4h[4:1],,1b,,,
{8}E8,2h[4:1],E2,7h[4:1],E8,2h[4:1],E2,7h[4:1],E7,3h[4:1],E3,6h[4:1],E7,3h[4:1],E3,6h[8:1],C,,{8}15,26,37,4h[8:1]/8h[8:1],,{32}4bx/8bx<5[8:1]*>3[8:1],B8,C,B4,{8},8w4b[8:1],,8b,,Ch[8:1]/B6/B5/B3/B2,,,
{8}1-4[8:1],4-7[8:1],1,A4h[8:1],,8-5[8:1]/5-2[8:1],1,85,,1-4-7b[4:1],A4h[4:2],1,,,8b,,
{8}8-5[8:1],5>2[8:1],8,A5h[8:1],,1-4[8:1]/4<7[8:1],8,14,,8-5>2b[4:1],A5h[4:2],8,,,1b,,
{8}1>4[8:1],4-7[8:1],1,A4h[8:1],,8<5[8:1]/5-2[8:1],1,85,,1>4-7b[4:1],A4h[4:2],1,,,8b,,
{4}2<2[8:5]/A6h[8:7],,,{8},A2f,
