&title=PRAGMATISM -RESURRECTION-
&artist=Laur
&first=0.06
&des=M1ko
&lv_5=14
&des_5=M1ko
&inote_5=
(174){24}3h[4:3]/B7,B6,{12}E6,{4},,,{16},{48},{24}5h[4:3]/B3,
B2,{12}E2,{4},,,{16},{48},{24}1h[4:3]/E6,
E7,{12}E8,{4},,,{16},{48},{24}8h[4:3]/E2,
E3,{12}E4,{4},,,{16},{48},{8}8<5[4:1],
1,2,3h[8:3],,4,{4}4,
{8}4>1[4:1],5,6,7h[8:3],,8,{4}8,
{8}4h[8:1],5h[8:1],3h[8:1],6h[8:1],2h[8:1],7h[8:1],1h[8:1],8h[4:1],
4bh[4:1],,,5v2b[16:3]/1-6[16:3],{2}1x/5x,
{8}4bh[4:1]/5bh[4:1],{16},,,,2,1,{8}2,8,7/3,6,
5bh[4:1]/4bh[4:1],{16},,,,7,1,{8}7,1/8,2/7,6/3,
5bh[4:1]/4bh[4:1],{16},,,,2,8,{8}2,{16}7,1,{8}7,6/2,
4bh[4:1]/5bh[4:1],,,1bxh[4:1]/3bxh[4:1],,,{4}8bxh[8:1]/6bxh[8:1],
{8}5bh[4:1]/4bh[4:1],{16},,,,6,4,{8}6,6/4,7/3,8/2,
5bh[4:1]/4bh[4:1],,,3/5,3/5,2/6,2/6,1/7,
{1}6bh[1:1]/2bh[1:1],
{4},,,{16},,,{48},{24}1bx,
{1},{4}6h[8:1]/3-8[8:1],
6h[8:1],7h[8:1]/1-4[8:1],7h[8:1],
8h[8:1]/5-2[8:1],8h[8:1],1h[8:1]/3-7[8:1],1h[8:1],
6h[8:1]/2-7[8:1],6h[8:1],5h[8:1]/6-1[8:1],5h[8:1],
4h[8:1]/8-5[8:1],4h[8:1],3h[8:1]/4-7[8:1],3h[8:1],
{8}2,2h[8:1],4,4h[8:1],6,6h[8:1],8,8h[8:1],
{16}1,5,3,4,2,6,4,5,3,7,5,6,3,8,5,6,
{1}1bw5b[2:1],
{8}3/7,7/3,8/2,8/2,{16}1s5[8:1]*-5[8:1],1,{8}1,{4}1bx,
{8}8/2h[8:1],{16}6,5,{8}6,7/4,{16}6,5,6,5,{4}7/4h[8:1],
{8}2/8h[8:1],{16}3,4,{8}3,2/5,{16}3,4,3,4,{4}2/5h[8:1],
{8}8/1h[8:1],{16}2,4,{8}2,5/3,{16}6,4,6,4,{4}5/7h[8:1],
{8}4/3h[8:1],{16}7,1,{8}7,6/2,{16}7,1,7,1,{8}2/6,2/6,
2>5[8:1],1,8,7>2[8:1],6,5,{4}4-1[8:1],
4b/8-5[8:1],8b/2-7[8:1],2b/6-3[8:1],1b/6b,
{8}1<6[8:1],2,3,4>1[8:1],5,6,{4}7qq4[8:3],
1,{8}2,2>5[8:1],{24},,,1/2,8,7,{4}6,
{8}4/6h[8:1],{16}3,5,{8}3,{16}2,1,2,1,{8}2,{4}3/8,
{8}6/4h[8:1],{16}7,8,{8}7,{16}5,4,5,4,{8}5,{4}6/3,
{8}2/8h[8:1],{16}1,7,{8}1,{16}3,4,3,4,{8}3,{4}5/2,
{8}4/2h[8:1],{16}6,5,{8}6,{16}8,1,8,1,{8}8,{4}7h[8:1]/2h[8:1],
{8}5>2[8:1],6,7,8<5[8:1],1,2,{4}3qq8[8:3],
7x-4[8:1],7x,{16}5/1,2/6,3/7,8/4,{4}1bxp4[4:3]`5bxp8b[4:3],
{1}1bx/5bx,
{4}5h[4:1],{8}7h[4:1],3xh[8:1],{16},,8x/4x,1x/5x,{4}2x-5b[8:1]`6bx-1[8:1],
{1}Cf/2bp8b[4:5]`6p4[4:5],
{24},,,,,,,,,,,,,,,,,,B1,B2,,,,,{8}B6,
,,E4,,,E8,C,
E4,,,C,{16},,,,E1,E8,E7,E6,
{1}E5/2p1[4:3],
{8}6h[8:3],,,2h[8:3],,,{4}8h[4:1],
{1}1h[1:1],
8w4[2:1],
{8}8/1-6[8:1],2h[8:1],{4}1,{8}4/5-2[8:1],6h[8:1],{4}5,
{8}2/8-5[8:1],7h[8:1],{4}8,{8}6/4-1[8:1],3h[8:1],{4}4,
{8}8-4[8:1],8,2-6[8:1],2,7-3[8:1],7,1-5[8:1],1,
6-3[8:1],6,2-7[8:1],2,8-5[8:1],8,2,2,
1/2h[8:1],7,1/8h[8:1],3,7/1h[8:1],5,2/7h[8:1],4,
6/5,7/4,3/8,1/2,4/3,5/2,6/1,8/7,
{24}1,2,3,4,5,6,7,8,1,2,3,4,{32}5,6,7,8,1,2,3,4-8b[4.5259##0.1724],5-1[4.4828##0.1724],6,7,8,1,2,3,4xh[32:89],
{1}5xh[4:11],
{4},,,,,,,,5/4,
7-5-3[4:1],3-1-7[4:1],7b,
2z6[4:1],{8}6z2[4:1],6,,8-4[8:1],{4}8,
{8}1>5[4:1],7,{4}5-3-1-5[8:3],6-8[8:1],6b,
{8}1s5[4:1],3,{4}5-7-1-5[8:3],4-2[8:1],4b,
{8}3qq5[8:3],{16}2,4,{8}3,5>1[4:1],6,7,{4}8,
{8}8qq2[8:3],{16}7,1,{8}8,2<6[4:1],3,4,{4}5,
{8}4qq1[8:3],{16}3,5,{8}4,5,6,7,{4}8-5[8:1],
8b/2b-7[8:1],2b/6b-3[8:1],6b/4bw8[8:1],4b,
6-8-2[4:1],2<6[4:1],{8}3,3,{4}3-1-7[4:1],
7-5-3[4:1],3V17[4:1],7-5-3[4:1],3b,
{8}7-3[8:1],3-7[8:1],{4}7,{16}1>4[8:1],,,8,{4}1qq6[8:7],
1/5-2[8:1],5,2-5[8:1],2,
{1}5b<4[8:9]/4b>5[8:9],
{4},,6h[4:1],2h[4:1],
{2}8h[4:3],1h[4:1],
{24}8<1[2:1]/1>8[2:1],7/2,6/3,5/4,{4},,,{16},{48},{8}2h[2:1],
1,8,7,{2}6,
{8}1h[2:1],8,7,6,{2}5,
{8}2h[8:3],1,8,7,6h[2:1],2,3,4,
4h[2:1],{16},,,,7,6,{8}5h[4:3],{16},,,,2,3,
{8}4V28[4:3],,,,,7,6,5,
{4}5<8[4:1],1,1>4[4:1],8,
{2}8h[2:1],{4}4h[4:1],2h[1:1],
{1}6h[4:3],
{16}2/6,1/5,8/4,7/3,6/2,5,4,3,5/2,4,3,2,4/1,3,2,1,
{4}4b/8-4[8:1],{8}8/1,{16}3,5x,{8}3,6,7/1,8/2,
7/1-5[8:1],2,8/1,{16}6,4x,{8}6,3,2/8,7/3,
6/4<7[8:1],3,2,1>4[8:1],8,7,{4}6h[2:1],
{16}8,1,2,3,{8}4h[8:3],{16}1,8,7,6,{8}5h[8:3],{4}4b,
4-8[8:1],{8}3/4,{16}1,7x,{8}1,2,3/5,6/4,
3/5-1[8:1],4,5/6,7,6/4-8[8:1],5,4/3,2,
{16}6b,8,6,1,6,2x,7b,1,7,2,7,3x,8b,2,8,3,
8,4x,1b,3,1,4,1,5x,1,2,3,4,5/1,6,7,8,
{8}1/2v5[8:1],2,2/8,{16}7,4x,6x,3,{8}5,4/2,5/3,
4/6v1[8:1],6,6/4,{16}3,8x,2,7,{8}1,6/8,7/1,
2/8<5[8:1],1,8/2,{16}3,4x,{8}3,2,1/7,8/6,
7/1>4[8:1],8,1/7,{16}6,5x,{8}6,7,8/2,1/3,
2/8<5[8:1],7,2/8-4[8:1],{16}2,3,{8}4/8-5[8:1],3x,8b/2,1x,
8/1>4[8:1],2,1-5[8:1],{16}7,6,{8}5/1-4[8:1],6x,1b/7,8x,
{16}2,1,3,8,2,1,3,7,1,8,2,7,1,8,2,6,
3,4,2,5,1,6,8,7,4,5,3,6,2,7,1,8-2-7-3-6-4<5-3-6-2-7-1[2.8448##2.4138],
{1}1-7-2-6-3-5>4-6-3-7-2-8b[2.7586##2.4138],
,8bx/1bx,
{16},,,,,,,,,,,,,,,,1,
8,2,7,1,8,3,7,1,8,2,6,1,8,3,7,
1,8,2,6,1,8,3,7,1,8,2,6,1-3-5-7-1>8b[4:7],8-6-4-2-8<1[16:27],2,7,
{1}1bx/8bx,
{16},,,,,,,,,,,,,,,,1,
8,2,7,1,8,3,7,1,8,2,6,1,8,3,6,
1,8,4,6,1,8,3,5,{48},1x,,,1x,,,8x,,,{24}8x,{48},,,,2bh[12:5],,,,,7bh[16:5],{4},,{24},{2}1bw5b[4:9]`8w4[4:9],
E
