&title=RED ZONE
&artist=清水达也 / 前田尚紀
&first=0.071
&des=albertoBradish respect for 隅田川星人
&lv_5=14
&des_5=albertoBradish respect for 隅田川星人
&inote_5=
(165){4},{1},,,,{4},,,{16}1x,
1x,1x,1x,{8}1x,{16}2,4x,,7,5x,1,1x,1x,{8}1x,
{16}7b,5,6,3,4,2,7,5,6,3,4,2,{8}E8/B8,E7/B6,
{16}3x,5,3,5,4,6,4,6,5,7,5,7,{8}8x/4x,6,
{16}2b,4,3,6,5,7,2,4,3,6,5,7,{8}1,1,
{16}8x,5,6,1x,4,3,8x,8x,{8}B3/B2,B7/B6,{12}4x,4x,4x,
{16}7b,5,6,3,4,2,7,5,6,3,4,2,{8}E8/B8,E7/B6,
{16}2x,4,2,4,3,5,3,5,4,6,4,6,1x,8,1,8,
2b,4,3,6,5,7,2,4,3,5,3,5,4,6,{8}4,
{16}6/5,7bx/4bx,,3/4,{8}2bx/5bx,{16}8bx/4bx,6bx/2bx,,,,,{4}2-4[8:1]/8-6[8:1],
A8f/2b-8[8:1],{8}2-4[8:1],5,{4}2-8[8:1]/6-8[8:1],6x/2-4[8:1],
2-8[8:1],{8}5/2-4[8:1],5,{4}2-8[8:1]/6-8[8:1],2x/6x,
{16}7x,6,5,4/8x,1,2,3/4x,5,6,7/1x,2,3,{8}4/5,8/2,
{16}5x,6,5,6,4x,7,4,7,3x,6,3,6,1x,8,1,8,
{4}2x/7b-1[8:1],{8}7-5[8:1],4,{4}7-1[8:1]/3-1[8:1],3x/7-5[8:1],
7-1[8:1],{8}4/7-5[8:1],4,{4}7-1[8:1]/3-1[8:1],7x/3x,
{16}6x,5,6,3x,4,3,7x,5,6,2x,4,3,{8}8xs4[16:5],8x,
{2}Ch[4:1],{16}4x,5,4,5,4,5,4,5,
{8}6bx/4b-8[8:1],2x,4x/3,2,{16}1x-6[8:1],1x,,3,{8}1,5x,
{16}2,4,{8}3,{16}7,5,{8}6,{16}2>5[8:1],8,,6x,7x,8x,{8}1x,
7b-3[8:1],1,7-5[8:1],4,{16}7x/1,1,,2,{8}2/4x,3,
{16}6,5,{8}7,{16}3,4,{8}2,{16}7x-3[8:1]/8x-4[8:1],1x/6x,{8}2x/5x,{4}7/8,
{8}3bx/5bx-1[8:1],7,5/6,7,{16}8-3[8:1],8,,6,{8}8,4,
{16}7,7,{8}5,{16}2,2,{8}4,{16}7<4[8:1],3,,3x,2,1,{8}8,
2b-6[8:1],8,2-4[8:1],5x,{16}2/8,8,,7,{8}7/5x,6,
{16}2,3,{8}4/5,{16}7,6,{8}5/4,{16}1/2,3x/8x,{8}4x/7x,{16}8/7,6x/1x,{8}5x/2x,
7b-5[8:1],4,7V13[8:1],1,7x-5[8:1],4,7/1,1,
2,2h[8:1],{16}4,3h[8:1],,5,{8}4h[8:1],{16}6,5x/7x,,1,{8}1,
2b-4[8:1],5,2V86[8:1],8,2x-4[8:1],5,2/8,8,
{16}8x,7,6,5/4x,3,2,1/7x,6,5,4/2x,1,8,{8}7x/5x,2x/4x,
7b-5[8:1],4,7V13[8:1],1,7x-5[8:1],4,7/1,1,
{16}2x,5,4,7,3x,4,5,6,1x,1,7,7,3,3,5,5,
{8}4b,3/5,2/4,1/3,8b,7/1,6/8,5/7,
{16}6,5,7,4,8,3,1,2,8x/4x,8x/4x,,6/2,{8}2x-5b[8:1]/6x-1b[8:1],5x/1x,
{64}6bV42-8-6-1[2:3]/2bV86-4-2-5[2:3],Cf/B2/B6,{1},{4},,,{16},,,{32},{8}2/4xh,
2,2/6xh,2,8/3xh,7,6/1xh,5/2,
3h[8:1],4,6h[8:1],{16}5,3,{8}4,4/5,{4}4/5,
8b<4[4:1],4>8[4:1],8V64[4:1],4V68[4:1],
{8}1,1,2,2,3-8[8:1],2,5-8[8:1],6,
1x,1,1x/3,1,1x/5,1/5,1x/7,1/7,
{16}1,8,1,8,2,7,2,7,{24}2,3,4,7,6,5,1,2,3,8,7,6,
{8}1b/5b-1[8:1],3,5/6,7,{16}8-3[8:1],8,,6,{8}8,4,
{16}7,7,{8}5,{16}2,2,{8}4,{16}7<4[8:1],3,,3,2,1,{8}8,
2-6[8:1],8,2-4[8:1],5,{16}2/8,8,,7,{8}7/5,6,
{16}3,4,{8}2,{16}6,5,{8}7,{16}2-6[8:1]/1-5[8:1],3/8,{8}4/7,{4}2/1,
{8}6b/4b-8[8:1],2,4/3,2,{16}1v6[8:1],1,,3,{8}1,5,
{16}2,2,{8}4,{16}7,7,{8}5,{16}2>5[8:1],6,,6,7,8,{8}1,
7-3[8:1],1,7-5[8:1],4,{16}7/1,1,,2,{8}2/4,3,
{16}6,5,{8}7/4,{16}3,4,{8}2/5,{16}8/7,1/6,{8}2/5,{16}1/2,8/3,{8}7/4,
2b-4b[8:1],5,{16}2V86b[8:1],8,,8,{8}2-4b[8:1],5,2/8,8,
7,7h[8:1],{16}5,6,4,5,3,4,2,6,5,7,{8}1,
7b-5b[8:1],4,{16}7V13b[8:1],1,,1,{8}7-5b[8:1],4,7/1,1,
{16}3,4,2,6,5,7,3,4,1,6,5,8,{8}1,7/3,
2b-4b[8:1],5,{16}2V86b[8:1],8,,8,{8}2-4b[8:1],5,2/8,8,
{16}7,4,5,2,6,5,4,3,8,8,2,2,6,6,4,4,
{8}5b,6/4,7/5,8/6,1,2/8,3/1,4/2,
{16}5,5,1,1,7,7,{8}3,{16}1/5,1/5,,3/7,{8}7p5b[4:3]/3-8b[8:1],1/5,
,,,,,,,2,
{16}8b,5,6,1,4,3,7,8,6-8b[8:1],5,8-4b[8:1],1,{8}6,2,
{16}1x,8x,7x,6x,5x/1x,8,7,6,5x/1x,2,3,4,5x/6x,7,8,1,
5x,4,3,2,1/8x,7,6,5,4/1x,8,7,6,1x/5,8,7,6,
{8}5/2,{16}3,4,2,2,6,5,{8}7/4,{16}3,4,2x/5x,6x/1x,{8}8x/7x,
{16}2b,8,3,8,4,8,5,8,2b,7,3,7,4,7,5,7,
8b,6,8,6,2b,5,2,5,2b/6,3,4,5,6/1,8,7,6,
5/1b,2,3,4,1b/5,8,7,6,5/1b,8,7,6,5/1b,4/8,3/7,2/6,
{8}5b/1b,{16}6,5,{8}8,{16}3,4,{8}1,6/8,{32}2,3,4,5,6,7,8,1,
{16}2b/6h[8:1],,,7/5h[8:1],{48},,,,,,8b/4h[16:1],1,2,3,,,,,,,,,{8}3/1,4/5,4/6,
{16}7b/3h[8:1],,,2/4h[8:1],{48},,,,,,1b/5h[16:1],8,7,6,,,,,,,,,{8}6/8,5/4,5/3,
{48}2bh/6bh,3/7,4/8,5/1,
E
