&title=Re:BIRTH
&artist=kanone
&first=0
&des_5=Happy ReBrith Day
&lv_5=14
&des=Happy ReBrith Day
&clock_count=4
&inote_5=(160.9)
{16},,,,
,,,,
,,,,
,,,,
{16},,,,
,,,,
,,,,
4,5,4,5,
{16}3>5[2:3],,,,
,,,,
,,,,
,,,,
{16},,,,
,,,,
,,,,
,,,,
{16}5/6<4[2:3],,,,
,,,,
,,,,
,,,,
{16},,,,
,,,,
,,,,
,,,,
{16}4/2>7[2:1],,,,
,,,,
,,,,
,,,,
{16}8-5[8:1]*z4[8:1],,,,
,,,,
3h[4:1]/6qq5-8[4:1],,,,
,,,,
{16}1,,7,4,
,6,5,,
2/8,,7,4,
,6,5,,
{16}7/1,,2,5,
,3,4,,
5/2,,3,4,
,6,5,,
{16}4/7b<4[8:1],,,3,
,,2,,
5/1-5[8:1],,,4,
4,,6,,
{16}4/7<4[8:1],,,3,
,,2,,
5/1-5[8:1],,,4,
4,,6,,
{16}4/7<4[8:1],,,3,
3,,2,,
5/1-5[8:1],,,4,
4,,6,,
{16}4/7-4[8:1],,,5,
5,,3,,
2-5[8:1],,,4,
4,,6,,
(161)
{16}7b-4[8:1],,7,,
3,,2,,
5b-2[8:1],,5,,
2,,3,,
{16}1b-6[8:1],,1,,
5,,4,,
7b-4[8:1],,7,,
3,,2,,
{16}1b,5,1,5,
2b,6,2,6,
3b,3,7b,7,
5b,5,1b,1,
{16}4v3V51[4:1],,,,
,,,,
8w4[8:1],,,,
Cf,,,,
{16}6/2h[8:1],,5,4,
6,,3,4,
2,,6,5,
7,,4,,
{16}6/2h[8:1],,4,3,
5,,3,4,
2,,6,5,
7<3[8:1],,1,,
{16}3,,2,,
{24}1/8,,,7,6,5,
4/3,,,2,3,4,
{16}5/6,,8,,
{16}6h[8:1]/5h[8:1],,,5h[8:1]/4h[8:1],
,,4/3,,
{24}1<6[8:1],,,2,3,4,
{16}5,,,,
{16}3/7h[8:1],,4,5,
3,,6,5,
7,,3,4,
2,,5,,
{16}3/7h[8:1],,5,6,
4,,6,5,
7,,3,4,
2>6[8:1],,8,,
{16}6,,7,,
8/2,,3,5,
4,4,6,6,
5,5,7,7,
{16}3,4,2,7,
5,6,3,4,
1w5[8:1],,,,
1b,,,,
{16}E7h[4:1],,,,
,,,,
E3h[4:1],,,,
A7,A8,A1,A2,
{16}Ch[4:1],,,,
,,,,
B6/A6/A5/E6,,B8/A8/A7/E8,,
B2/A2/A1/E2,,B4/A4/A3/E4,,
{16}7h[8:1],,5,,
6,5,7,7,
2h[8:1],,4,,
3,4,2,2,
{16}6,5,7,2,
4-8[8:1],3,6,5,
8w4b[8:1],,,,
,,,,
{16}6/2,,3h[8:1],,
6,,7,6,
4/5,,3h[8:1],,
6,,7,6,
{16}4/5,,2h[8:1],,
7,,7,6,
1/5,,2h[8:1],,
8b,,,,
{16}7/4,,6,,
5,6,,7/4,
,5,7/4,,
6,5,,5,
{16}7/4,,6,,
3,4,,2/5,
,4<7[16:1],5/2,,
,,,,
{16}8/3-8[8:1],,2,1,
3,,7,,
5/6-1[8:1],,7,8,
6,,2,,
{16}3,3,6,6,
4,4,7,7,
{24}2-6[8:1],3,4,5/6,,,
{16}7,,8,,
{16}7,5,6,3,
4,2,5,4,
6,5,7,2,
4,3,6,5,
{16}8h[4:1],,,,
4,7,3,5,
{24}1h[8:1],,,7,6,5,
{16}4/E2f/B2/A2,,,,
{16}3/5,,6,,
{24}4,,,6,5,6,
{16}5,,7,,
4,5,3,6,
{16}5,7,4,6,
{24}3,,,2,3,4,
5/7,,,7,6,5,
{16}4/2,,1,,
{16}6/2,,3,,
{24}5,,,3,4,3,
{16}4,,2,,
5,4,6,3,
{16}4,2,5,3,
{24}6,,,7,6,5,
{16}4/2,,1,,
E7,E6,E3,E4,
{16}Cf,,,,
,,,,
,,,,
,,,,
{16},,,,
,,,,
,,,,
,,,,
{16}5/7h[16:3],,,6h[16:3],
,,5h[8:1],,
7h[16:3],,,6h[16:3],
,,5h[8:1],,
{16}2h[16:3],,,3h[16:3],
,,4h[8:1],,
2h[16:3],,,3h[16:3],
,,4h[8:1],,
{16}B2,,,,
,,B7,,
,,,,
C,,,,
{16}B6,,,,
B5,,,,
B4,,,,
B3,,,,
{16}5/7h[16:3],,,6h[16:3],
,,5h[8:1],,
2h[16:3],,,3h[16:3],
,,4,,
{16}B7/A7/E7/A6/A2/E3/B3/A3,,,,
1b,1b,1b,1b,
1bxw5b[8:1],,,,
,,,,
{16}7/3,,,,
6/B4,,,,
7/3,,,,
6/B4,,,,
{16}2/6,,,,
3/B5,,,,
2/6,,,,
3/B5,,,,
{16}7/E4,,,,
1/B4,,,,
8/B5,,,,
2/E6,,,,
{16}7/D6,,,,
1/A5,,,,
8/A4,,,,
2/D4,,,,
{16}8/E6,,8,,
7/B5,,7,,
6/B4,,6,,
5/E4,,5,,
{16}1/D4,,1,,
2/A4,,2,,
3/A5,,3,,
4/D6,,4,,
{24}7,6,5,2,3,4,
8,7,6,1,2,3,
7,6,5,4,3,2,
{32}8,7,6,5,4,3,2,1,
{16}8b,,,,
E5f,,,,
7-4b[8:1]/3v8b[8:1],,,,
A2/D3/A3/A4/D5/D4f/D1/A8/D8/A7/D7,,,,
{16}1/5,,2,4,
3,5,4,6,
5,7,4,5,
3,6,5,8,
{16}4,,7/5,7,
,4,4/6,,
8,,7/5,7,
,4,6/4,,
{16}3/5,2,1,4,
5,6,2,3,
4/7,,6/5,6,
,4,4/7,,
{16}6/3,7,8,5,
4,3,7,6,
{24}5/2,,,3,4,3,
{16}4,2x,5x,2x,
{16}1/6,,7,5,
6,4,5,3,
4,2,5,4,
6,3,4,1,
{16}5,,2/4,2,
,5,5/3,,
1,,2/6,2/6,
,,,,
{16}5/3b<6[8:1],,,8,
,,7,,
7bp2[8:1],,2,2,
,,1,,
{16}1bv8[8:1],,,7,
,,6,,
5b,,1,,
2/6,3/7,8/4,1/5,
{16}6-3b[8:1]/2v7b[8:1],,,,
D7f/A8/A7/D8/A6/D6/A2/D2/D3/A3/D4/A4,,,,
1/5,,8,4,
6,3,5,4,
{16}7,6,5/3,3,
,6,6/4,,
8/2,7,6/4,4,
,5,5/3,,
{16}2,4,3,6,
5,7,1,4,
3,6,5,8,
2,2,6,6,
{16}1/5,,4/2,4/2,
,6/5,6/5,,
{24}8/4,,,8/4,7/3,2/6,
1/5,,,2/6,3/7,4/8,
{16}1/5-1b[4:1],,,,
8,,8,,
7,,7,,
6/2,,6,,
{16}3/5,,3,,
3,4,2,5,
4,6,3,4,
5/1bh[4:1],,,,
{16}5b-1b[8:1],,6,,
7/5,,8b-4b[8:1],8,
2,2,,,
1b,,3b-7b[8:1],3,
{16}5,5,,,
8b,,8/6x,7/5x,
6/4x,5/3x,4/2x,1x/3,
{32}8-4b[8:1],7,6,5,4,3,2,1,
{16}8bx/6b,,,,
,,,,
,,B6,,
B5,,B4,,
{16}B3,,,,
E3,,,,
C,,,,
E7,,,,
{16}6,,5,,
4,,3,,
4,,5,,
6,,,,
{16}3,,4,,
5,,6,,
5,,4,,
3/E7,,,,
{16}E2,,,,
,,B7,,
,,,,
D1,,,,
{16}C,,,,
,,6,2,
8,3,7,1,
5,2,6,4,
{16}8w4b[2:1],,,,
,,,,
,,,,
,,,,
{16}6/3,,7/5,7/5,
,2/4,4/2,,
1/5pp7[8:1]*qq4[8:1],,6/4-7z3b[8:3],,
