&title=イドラのサーカス
&artist=Neru
&first=0.01
&des=ギャラクティック犬小屋ソング
&lv_5=14
&inote_5=(181){4},,,,
{64}3,,,,,,,,,,,,,,,B5,{4}E5,{64}2,,,,,,,,,,,,,,,B6,{4}E6,
{64}3,,,,,,,,,,,,,,,B5,{4}E5,{64}2,,,,,,,,,,,,,,,B6,{4}E6,
{64}3,,,,,,,,,,,,,,,B5,{4}E5,{64}1,,,,,,,,,,,,,,,B7,{4}E7,
{64}3,,,,,,,,,,,,,,,B5,{4}E5,{64}1,,,,,,,,,,,,,,,B7,{4}E7,
{64}3,,,,,,,,,,,,,,,E5,{4}3/B5,{64}2,,,,,,,,,,,,,,,B7,{4}2/B8,
{64}3,,,,,,,,,,,,,,,E5,{4}3/B5,{64}2,,,,,,,,,,,,,,,B7,{4}2/B8,
{64}3,,,,,,,,,,,,,,,B5,{4}3/E5,1,{8}1/7h[8:5],5bxV74-1b[8:3],
,,,,{4}8x,{16}1,7,1,7,
{4}2-5[8:1],2b/6b,{8}5x/7,7,4/7<5[8:1],7,
{4}3,5x/3x,{8}4/2,2,5/2>5[8:1],2,
{4}6,5x/7x,{8}8/4,8,3/8<4[8:1],8,
{4}2,4x/2x,{16}1,8,{8}1,{4}5-8[8:1]/4-1[8:1],
5b/4b,2x/8x,{8}3/7,3,6/3>8[8:1],3,
{4}5,8x/6x,{8}5/1,5,2/5,5,
{4}3-6[8:1],6b,{16}7h[16:3],,,5,{8}6,2b/8b,
,3/4,{4}7b/1b,{16}3/6,,,5,{8}4,{16}6,3,
{4}7h[4:1],{8}5x,7h[4:1],,8x,{4}8x,
7h[4:1],{8}5x,7h[4:1],,1x,{4}1bx-5[8:1],
6-4[8:1],{8}2-5[8:1],2,7-4[8:1],7,3-5[8:1],3,
8-4[8:1],8,2-5[8:1],2,7-4[8:1],7,{4}1,
2h[4:1],{8}4x,2h[4:1],,1x,{4}1x,
2h[4:1],{8}4x,2h[4:1],,8x,{4}8bx-4[8:1],
3-5[8:1],{8}7-4[8:1],7,2-5[8:1],2,6-4[8:1],6,
1-5[8:1],1,7-4[8:1],7,2-5[8:1],2,{4}8,
6h[4:1],{8}5x,7h[4:1],,8x,{4}8x,
6h[4:1],{8}5x,7h[4:1],,1x,{4}1bx-5[8:1],
6-1[8:1],{8}2-5[8:1],2,7-1[8:1],7,3-5[8:1],3,
8-4[8:1],8,3-8[8:1],3,7-4[8:1],7,{4}1,
3h[4:1],{8}4x,2h[4:1],,1x,{4}1x,
3h[4:1],{8}4x,2h[4:1],,8x,{4}8bx-4[8:1],
3-8[8:1],{8}7-4[8:1],7,2-8[8:1],2,6-4[8:1],6,
1-5[8:1],1,6-1[8:1],6,{4}2,{8}8,{16}4,4,
{4}7b-3[8:1],7/3,{8}2>4[12:1],4,{4}6,
{8}2>5[8:1],5,{4}7,{8}2>6[8:1],6,{4}8-3[8:1],
{8}4x,4-7-1b[4:1],6,6xh[4:1],,,{4}1xh[4:1],
{8}4x,4-7-1b[4:1],2,2xh[4:1],,,{4}1x,
2b-6[8:1],2/6,{8}7<5[12:1],5,{4}3,
{8}7<4[8:1],4,{4}2,{8}7<3[8:1],3,{4}1-6[8:1],
{8}5x,5-2-8b[4:1],3,3xh[4:1],,,{4}8xh[4:1],
{8}5x,5-2-8b[4:1],7,7xh[4:1],,,{4}6x-2[8:1],
3-8[8:1],4b,6-1[8:1],5,
3-7[8:1],4,6-2[8:1],1>5[4:1],
5<1[4:1],1>5[4:1],5,1,
3/7-4[8:1],1,3/5,{16}6,5,7,5,
{4}6,{8}8/3,{16}4,4,{8}6,6,{4}5/7,
2,{8}1/6,{16}5,5,{8}3,3,{4}4b/2b,
{8}7/1,3/5,{4}6-1[8:1]/2-5[8:1],6/2,{8}8/4,6/2,
,5/1,{4}7/3,{8}2-5[8:1],1,6-4b[12:1],7,
{4}3h[4:1],{8}2-5[8:1],8,{4}6-4[12:1],{8}2-5[8:1],1,
{4}6-3[8:1],2,{8}1-5[8:1],2,6-4[12:1],7,
{4}3h[4:1],{8}1-5[8:1],7,{4}6-4[12:1],{8}1-5[8:1],2,
{4}6-3[8:1],1-4[8:1],{8}1-6[8:1],7,1-5b[8:1],3,
{4}1,{8}6/4,{16}7,7,{8}1,1,{4}8/2-5[8:1],
6,{8}7x/5x,{16}8,8,{8}2,2,{4}1/3-6[8:1],
3x/7x-4[8:1],7x/1x-5[8:1],1x/5x,{8}6/4,2b/8bV63[4:1],
,1,{4}1,{16}2,6,2,6,{4}3-5b[12:1],
6h[4:1],{8}7-4[8:1],1,{4}3-5[8:1],{8}7-4[8:1],8,
{4}3-6[8:1],7,{8}8-4[8:1],7,3-5[8:1],2,
{4}6h[4:1],{8}8-4[8:1],2,{4}3-5[8:1],{8}8-4[8:1],7,
{4}3-6[8:1],8-5[8:1],{8}8-3[8:1],2,8-4b[8:1],6,
{4}8,{8}3/5,{16}2,2,{8}8,8,{4}1/7-4[8:1],
3,{8}2x/4x,{16}1,1,{8}7,7,{4}8/6-3[8:1],
6x/2x-5[8:1],2x/8x-4[8:1],4x/8x,{8}3/5,7b/1bV36[4:1],
,8,{4}8h[4:1],{16}5x,7,4,6,3,5,2,4,
{4}1>8[2:1],Cf,,,1/6-1[8:1],
{8}3-8[8:1],3,7,7,6,{16}6,5,
{4}7-2[8:1],{8}4-1[8:1],4,8,7,{4}6h[4:1],
2-7[8:1],{8}5-8[8:1],5,1,2,{4}3b-6b[8:1],
6/3,{16}8,1,{8}8,3h[8:1],4h[8:1],5h[8:1],6>3[8:1],
,2,1,8,7,{16}4,5,4,5,3,6,
{4}2b,{8}4/7,{16}3,4,{8}3,5,2/5,{16}1,1,
{8}7,7,6/8,{16}5,4,{8}5,3,{4}6b/2b,
{8}7/1,3/5,{4}6-1[8:1]/2-5[8:1],6/2,{8}8/4,6/2,
,5/1,3-6b[8:1]/7-2b[8:1],8/4,,,,,,,{4}7xh[4:1]/B3f/B4,
,2xh[4:1]/B6/B5/Cf,
,Cf/7xV16-4b[16:7],{2}3xh[4:3],
{32},,,,,,,,2bx,1bx,8bx,7bx,,,,,{16}3,5,4,5,2,5,4,5,
{4}1b,{8}2/6,{16}4,5,{8}4,7,{4}6/1-4[8:1],
1b/8,{8}3/5,{16}2,2,{8}8,8,{4}1/7<4[8:1],
3,{8}2x/4x,{16}1,1,{8}7,7,{4}8/6>3[8:1],
6x/1x<6[8:1],1x/4x>1[8:1],6x/4x,{8}7x/8x,2b/4b-7-1[4:1],
,3,{4}3,{16}4,8,4,8,{4}3-5b[12:1],
6xh[4:1],{8}7x-3[8:1],1,{4}3x-5[12:1],{8}7x-3[8:1],1,
{4}3x-6[8:1],7x,{8}1-5[8:1],2,6b-4b[12:1],7,
{4}3xh[4:1],{8}1x-6[8:1],7,{4}6x-4[12:1],{8}1x-6[8:1],7,
{4}6x-3[8:1],1x-4[8:1],{8}1x-6[8:1],7,1x-5b[8:1],3,
{4}1x,{8}6/4,{16}7,7,{8}1,1,{4}8/2>5[8:1],
6,{8}7x/5x,{16}8,8,{8}2,2,{4}1/3<6[8:1],
3x/7x>2[8:1],7x/3xh[4:1],{16}4,2,5,3,6,4,{8}7-3[8:1],
,1,{4}1-5[8:1],1w5[8:1],1,
{32}8x/2x,3x,4x,5x,6x,7x,8x,1x,2x,3x,4x,5x,6x,7x,8x,1x,2x,3x,4x,5x,6x,7x,8x,1x,2xqq5b[2:1],3x,4x,5x,6x,7x,8x,1x,
{4},,,,
{8}2-5[8:1],1,2,7-4[8:1],8,7,2>5[8:1],1,
2,7<4[8:1],8,7,{4}1w5[8:1],1b,
{8}7-4[8:1],3,7,2-8[8:1],5,2,6-4[8:1],1,
6,3-8[8:1],7,3,6,6,2,2,
8-5[8:1],1,8,1-4[8:1],8,1,5,2bx<7[8:1],
,6,{4}6h[4:1],{16}5,7,4,6,3,5,2,4,
{4}1bx-4[8:1],{8}6x-3[8:1],7,{4}1x-5[8:1],{8}6x-3[8:1],7,
{4}1x-6[8:1],{8}6x-3[8:1],7,{4}1x-6[8:1]*-4[8:1],1x,
5x-8[8:1],{8}2x-7[8:1],3,{4}5x-1[8:1],{8}2x-7[8:1],3,
{4}5x-2[8:1],{8}2x-7[8:1],3,{4}5x,{16}4x,6,4,6,
{32}3bx-5[8:1],2x,{16}1x,,,{8}8x-4[8:1],7,{32}3bx-6[8:1],2x,{16}1x,,,{8}8x-4[8:1],7,
{32}3bx-5[8:1],2bx,{16}1x,,,{8}8x-3[8:1],7,{32}3bx-6[8:1],2bx,{16}1bx,,,{8}8x,8x,
{32}7bx/1bx,2x/6x,{16}3x/5x,,,3x,4,2,2,8bx,1,6,5,7x,7,1,8,
2bx,4,3,3,8x,2,7,5,6bx,6,1,7,{8}4w8b[8:1],4x,
E
