&title=Mulch
&artist=Sampling Masters MEGA
&first=0.41
&des=ユユユ ユユユ ユユユユユしき
&lv_5=14
&des_5=ユユユ ユユユ ユユユユユしき
&inote_5=
(200){4}E7,C,E3,Ch[8:1],
{8}5-8[8:1],5,,1,2,3,4,5/6,
3,4,1,8,6,5,8,1,
1-3[8:1],1-5[8:1],1,1,8-6[8:1],8-4[8:1],8,8,
1,2,3,4,5h[4:1],6h[16:1],,7/6,
8-5[8:1],5-7[8:1],,,1-4[8:1],4-2[8:1],,,{4}8-6[8:1]*-5[8:1],
8-3[8:1]*-2[8:1],8w4[8:1],8,
1<6[8:1]/2>5[8:1],D2f/A1/A2,7<4[8:1]/8>3[8:1],D8f/A7/A8,
8<5[8:1]/1>4[8:1],D1f/A8/A1,{2}Ch[8:3],
{8}1-3[8:1],5-7[8:1],1-5[8:1],5,{4}1w5[8:1],1,
{8}8-6[8:1],4-2[8:1],8-4[8:1],4,{4}8w4[8:1],8,
{8}2-4[8:1],1-5[8:1],2,1,8-4[8:1],7-5[8:1],8,7,
1-3[8:1],1-7[8:1],1-5[8:1],1,{4}1w5[8:1],1,
{8}8x<5[8:1],4>1[8:1],8p4[8:1]*q4[8:1],4,{4}8<5[8:1]*>3[8:1],8,
{8}1-4[8:1],5-8[8:1],1-5[8:1],5,{4}1<6[8:1]*>4[8:1],1,
{8}8-6[8:1],8-2[8:1],8,8,4-6[8:1],4-2[8:1],4,4,
{4}8b<4[8:1]*-6-4[8:1],8bV24[8:1]*>4[8:1],{2}8b,
{8}6/2,7/1,{4}8-4[8:1],8-5[8:1]*-3[8:1],8,
{8}7x,8x,{4}1x-5[8:1],1<6[8:1]*>4[8:1],1,
{8}7x-5[8:1],7x-2[8:1],7,7,3-6[8:1],3-1[8:1],3,3,
8-6[8:1],8-2[8:1],8-5[8:1],8-3[8:1],8-4[8:1],8,{4}8,
5x-7[8:1]/3x-1[8:1],5x/3x,{8}8-5[8:1]*-3[8:1],8,{4}8,
6x-8[8:1]/4x-2[8:1],6x/4x,{8}1-6[8:1]*-4[8:1],1,{4}1,
{8}7-5[8:1],4-8[8:1],7,4,7-5[8:1],4-8[8:1],7,4,
2x-4[8:1],1x-5[8:1],2-6[8:1],1-7[8:1],2-4[8:1],1-5[8:1],2,1,
7x-3[8:1],8,{4}1-3-5[8:1]*-4-6[8:1],1,{32}A1,B1,C,B5,{8}A5,
2-6[8:1],1,{4}8-6-4[8:1]*-5-3[8:1],8,{32}A8,B8,C,B4,{8}A4,
{4}8b-4[8:1]/2b-4[8:1],8b-6[8:1]/2b-6[8:1],8b/2b,{8}5,4,
5/4,3,4/3,2,{4}3/2w6[8:1],2b,
{8}6x-2[8:1],5,{4}4-2-8[8:1]*-1-7[8:1],4,{32}A4,B4,C,B8,{8}A8,
3-7[8:1],4,{4}5-7-1[8:1]*-8-2[8:1],5,{32}A5,B5,C,B1,{8}A1,
{4}5b-1[8:1]/3b-1[8:1],5b-7[8:1]/3b-7[8:1],5b/3b,{8}8,1,
8/1,2,1/2,3,{4}3/2w6[8:1],2b,
8bx-6[8:1],8b/1b-5[8:1],1b/2b-4b[8:1],2b,
7b-5[8:1],7b/8b-4[8:1],8b/1b-3b[8:1],1b,
8b<4[4:1],4b>8[4:1],8b-6-4[4:1],4b-2-8[4:1],
8bp4[4:1],4bp8[4:1],8bw4b[8:1],{32}A8,B8,Cf,B4,{8}A4,
{4}1bx-3[8:1],1b/8b-4[8:1],8b/7b-5b[8:1],7b,
2b-4[8:1],2b/1b-5[8:1],1b/8b-6b[8:1],8b,
1b>5[4:1],5b<1[4:1],1b-3-5[4:1],5b-7-1[4:1],
1bq5[4:1],5bq1[4:1],1bw5b[8:1],A1f,
{8}7xv5[8:1]/8x-6-4[8:1],7x/8x,,,1-3-5[8:1]/2v4[8:1],1/2,{24},,,,,,{6}6b/8b,
7b/1b,8b/2b,1b-6[8:1]/3b-6[8:1],{12},{4}1/3,
{8}5x-8[8:1],5x,1-4[8:1],1,6-3[8:1],6,2-7[8:1],2,
,,B4/E4,E8/B8,{4}Cf,{8}5xs1[4:1]/4xz8[4:1],5/4,
{2}5/4,{8}8h[16:1]/1h[16:1],8h[16:1]/1h[16:1],7h[16:1]/2h[16:1],7h[16:1]/2h[16:1],
6h[16:1]/3h[16:1],6h[16:1]/3h[16:1],5h[16:1]/4h[16:1],5h[16:1]/4h[16:1],{4}5s1[8:1]/4z8[8:1],5/4,
5<8[8:1]/4>1[8:1],D5f/A5/A4,5-1[8:1]/4-8[8:1],D5f/A5/A4,
7x-3[8:1]/2x-6[8:1],7-4[8:1]/2-5[8:1],7-1[8:1]/2-8[8:1],7b/2b,
{2}7h[8:3]/2h[8:3],6h[4:1]/3h[4:1],
{4}E7f,Cf,E3f,5w1[8:1],
5<8[8:1]*>2[8:1],5-8[8:1]*-2[8:1],5-1[8:1],5,
8x<5[8:1]/2x>5[8:1],8-5[8:1]/2-5[8:1],8-4[8:1]/2-6[8:1],8/2,
5-2[8:1]*-3[8:1],5-7[8:1]*-8[8:1],5-1[8:1],5,
8-5[8:1]/2-5[8:1],8<5[8:1]/2>5[8:1],8-4[8:1]/2-6[8:1],8/2,
5x<1[8:1]*-7-1[8:1],5-3-1[8:1]*>1[8:1],5-8[8:1]*-1[8:1],5,
2-4[8:1],2/8-6[8:1],8/1-6[8:1]*-4[8:1],1,
5x-7[8:1]*-3[8:1],5-8[8:1]*-2[8:1],5-1[8:1],5x,
2x-6[8:1]/8x-4[8:1],8/2,{32}A8,D8,A7f,D7,{8}A6,{32}A2,D3,A3f,D4,{8}A4,
{4}5x-7[8:1]*-3[8:1],5-8[8:1]*-2[8:1],5w1[8:1],5,
1x<6[8:1]*>4[8:1],1-6[8:1]*-4[8:1],1w5[8:1],1,
{8}7xqq5[8:1]/8x-6>5[8:1],7xh[8:1]/8xh[8:1],,,1-3<4[8:1]/2pp4[8:1],1h[8:1]/2h[8:1],,,{4}E6f,
Cf,{2}E2f,
{8}2h[4:1]/1-4[8:1],,,8h[4:1],{4}1-6[8:1],1b,
{8}4xh[4:1]/5x-2[8:1],,,6h[4:1],{4}5-8[8:1],5b,
{8}1h[4:1]/2xh[4:1],,,8h[4:1]/3h[4:1],{32},,,,,,,,6b/4b,B6/B4,Cf,B8/B2,{8}A8/A2,
{4}A1/D2/D1,A6/D6/A5,D8/A8/A7,A4/A3/D4f,
7h[8:1]/8h[4:1],{8}7h[4:1],8h[4:1],{32},,,,,,,,A7/A1,B7/B1,Cf,B5/B3,{8}A5/A3,
{4}4xh[8:1],{8}3h[4:1],4h[4:1],{32},,,,,,,,A5/A3,B5/B3,Cf,B7/B1,{8}A7/A1,
6x-1[8:1],2x-5[8:1],6-3[8:1],2-7[8:1],,,{4}Cf,
{6}8b/Cf,4b/Cf,6b/Cf,2b/Cf,{12},,,,{4}1-3[8:1],
1-4[8:1]*-5[8:1],1-7[8:1]*-6[8:1],1b,
8x-6[8:1]*-5[8:1],8x-4[8:1]*-3[8:1],8x-2[8:1],8bx,
4bx-8[8:1]/3bx-1[8:1],4b-6[8:1]/3b-7[8:1],4b/3b,{8}8x,8/7,
1,8/1,2,1/2,{4}3w7[8:1],3b,
6x-3[8:1]*-4[8:1],6-2[8:1],6-8[8:1]*-1[8:1],6b,
2-4[8:1]*-5[8:1],2-6[8:1],2-7[8:1]*-8[8:1],2b,
5bx-3[8:1]/6bx-2[8:1],6b-8[8:1]/5b-1[8:1],6b/5b,{8}2x,1/2,
8,1/8,7,8/7,{4}6w2[8:1],6,
2bx-4[8:1],2b/8b-6[8:1],8b/1bw5b[8:1],1b,
1b-3[8:1],1b/7b-5[8:1],7b/8bw4b[8:1],8b,
8bx-4[8:1]/1bx-3[8:1],8b/1b,8b-6[8:1]/1b-5[8:1],8b/1b,
8b-4[8:1]/1b-3[8:1],8b-6[8:1]/1b-5[8:1],{2}8b/1b,
{4}7bx-5[8:1],7b/1b-3[8:1],1b/8bw4b[8:1],8b,
8b-6[8:1],8b/2b-4[8:1],2b/1bw5b[8:1],1b,
1bx-5[8:1]/8bx-6[8:1],1b/8b,1b-3[8:1]/8b-4[8:1],1b/8b,
1b-5[8:1]/8b-6[8:1],1b-3[8:1]/8b-4[8:1],1b/8b,Cfh[4:5],
{8},,,,,5w1b[0.45##0.15],,,{1}5b,
E
