&title=BOW AND ARROW
&artist=米津玄师
&first=0
&des=fullower
&lv_5=13+
&lv_6=13+
&inote_5=(180)
{1},{8},,,,,,,{32},
{16}2x/7x,3x/6x,{64}4x>5[2:3]/5x,D5f,,,,,,,,,,,,,,,{4},,,{8},,,,,,,,3/4,,
{8}3/4,2,3/4,5,3/4-6[8:1],,2/4,3,4-2[8:1],,6/4,5,4,
{16}A1,B8,{4}5/E7,5,5/E4/A3/E3/B3,5-7[8:1],{8}3/5,4,5-3[8:1],,5/7,6,5,
{16}B2,C,{4}4-1^8-5[2:1]/B6,4,4,4,
{8}2/5,3/4,5/7,{16}4,6,3,7,2/8,,1-5[8:1],1,1,1,1b,,,,
{16}6,,3/7h[4:1],,,,8,,1/6,,2,2,4h[8:1],,3,,4h[8:1],,2h[4:1],,,,1,,
{16}3/8,,7,7,5h[8:1],,6,,5h[8:1],,7h[4:1],,,,8,,1/6,,2,,
{8}3^5[8:1],5^7[8:1],7^1[8:1],1^3[8:1],,,5x-1b[8:1],5x,,,
{16}2,,7/3h[4:1],,,,4,,5/2,,6,6,8h[8:1],,7,,8h[8:1],,6h[4:1],,,,5,,
{16}7/4,,3,3,1h[8:1],,2,,1h[8:1],,3h[4:1],,,,4,,5/2,,6,,
{8}7^1[8:1],1^3[8:1],3^5[8:1],5^7[8:1],,,1x,1x,
{8}4h[4:1]/6h[4:1],,,4-1[8:1]/6h[4:1],,,,,1pp1[8:3]/6h[4:1],,,,,,,1,
{8}8h[4:1]/2h[4:1],,,8-5[8:1]/2h[4:1],,,,,5pp4[8:3]/2h[4:1],,,,,,,,
{8}5h[4:1]/3h[4:1],,,5-8[8:1]/3h[4:1],,,,,8<4[8:3]*q2[8:3],,,,,,,,
{8}1h[4:1]/7h[4:1],,,1-4[8:1]/7h[4:1],,,,,3/5h[2:1],,
{16}D7,D8,D1,D2,D3,,5h,,5h,,,,
{16}3h[4:1]/5q1[8:1],,,,,,2,,,,3,8,3^6[8:1],8,3,,
{16}7h[4:1],,,,8,,1/6,,,,2,5,2^7[8:1],5,2,,
{16}6h[4:1],,,,5,,4p8[8:1]/6h[4:1],,,,,,6,,,,
{16}7q3[8:1]/5h[4:1],,,,,,5,,,,4/6,,4/6,,,,
{16}7h[4:1]/1q5[8:1],,,,,,6,,,,7,4,7^2[8:1],4,7,,
{16}3h[4:1],,,,4,,5/2,,,,6,1,6^3[8:1],1,6,,
{16}2h[4:1],,,,1,,8p4[8:1]/2h[4:1],,,,,,2,,,,
{16}3q7[8:1]/1h[4:1],,,,,,1-5[8:1],,,,,,,,
{8}2-8[8:1],3/5h[4:1],,,6-4[8:1],1h[4:1]/7,,,,
{8}2>6[4:1],,6V41[4:1],,7,,8,
{8}7-4[8:1],2h[4:1]/6,,,3-8[8:1],6h[4:1]/2,,,,
{8}7V51[4:1],,1V37[4:1],,4,4,,
{8}2-6[8:1],4/8h[4:1],,,7-3[8:1],1h[4:1]/5,,,,2qq7[2:1],,7,7,6h[4:1],,,
{8}6qq3[2:1],,7,8,1,2w6[8:1],,,,
{8}4hb[2:1]/8hb[2:1],,,,
{16},,,,A7,E7,E6,E5,1x^6b[8:1]/D4,,
{16}2,,{32}1/5pp2[16:5],,,,,,,,{16}2/5,,,3,,,3,,4-1b[8:1]*-7b[8:1],,
{16}3/5,,{32}4-2-8-6[16:5],,,,,,,,{16}4,,,5,,,5,,2/6pp2b[16:5],,
{16}3,,{32}4qq5[16:5]/6,,,,,,,,{16}4,,,1x,,,8qq3[8:3],,
{8}7>3[4:1],6,,,,
{8}4,5,6,1/7,2-6[8:1],3,2/4v1[8:1]*v7[8:1],,
{8}4,,3>6[4:1],,6,5,4pp3[4:1],,
{8}3/4,2,1,8-3[8:1],8,6-2[8:1],6,5-1[8:1],5,7-3[8:1],7,6-2[8:1],,,,
{16}6bx-2b[8:1],,,,,,,,
{8}4x/8x^3b[8:1],
{16}7,,{32}8/4qq6[16:5],,,,,,,,{16}4/6,,,8,,,8,,1^4b[8:1]*^6b[8:1],,
{16}8/2,,{32}1-7-3-5[16:5],,,,,,,,{16}1,,,6,,,6,,7/3qq7b[16:5],,
{16}6/4,,{32}5pp4[16:5]/3,,,,,,,,{16}5,,,8x,,,1pp6[8:3],,
{8}2<6[4:1],3,,,,5w1[8:1],,,,,
{8}3/7-2b[8:1],{16},3,7,,4v7[8:1]*-1[8:1],,5,,4,,,,,,
{8}3-1[8:1],4,7-5[8:1],8,4,3,2/5,
{16}3,4,2/6,,1/8,,6,5,4/7,,8-4[8:1],1,8,1,8,,,,,,
{8}1b-4b[8:1]/8b-5b[8:1],,,,,Cf,,,
{16}2/6h[4:1],,,,5,,4^7[8:1]/7,,3,3,4,,1p5[8:1],,2,,1/3h[4:1],,,,4,,
{16}2/5^2[8:1],,6,6,5,,8q4[8:1],,7,,6h[4:1]/8,,,,5,,4/7,,3,,
{8}2^8[8:1],8^6[8:1],6^4[8:1],4^2[8:1],,,8x-4b[8:1],8x,,,3,
{16}6/2h[4:1],,,,1,,8^3[8:1]/3,,7,7,8,,5p1[8:1],,6,,5/7h[4:1],,,,8,,
{16}6/1^6[8:1],,2,2,1,,4q8[8:1],,3,,2h[4:1]/4,,,,1,,8/3,,7,,
{8}6^4[8:1],4^2[8:1],2^8[8:1],8^6[8:1],,,4x,4x>4b[2:3]*<4b[2:3],,,
&inote_6=(180)
{1},{8},,,,,,,{32},
{16}2x/7x,3x/6x,{64}4x>5[2:3]/5x,D5f,,,,,,,,,,,,,,,{4},,,{8},,,,,,,,3/4,,
{8}3/4,2,3/4,5,3/4-6[8:1],,2/4,3,4-2[8:1],,6/4,5,4,
{16}A1,B8,{4}5/E7,5,5/E4/A3/E3/B3,5-7[8:1],{8}3/5,4,5-3[8:1],,5/7,6,5,
{16}B2,C,{4}4-1^8-5[2:1]/B6,4,4,4,
{8}2/5,3/4,5/7,{16}4,6,3,7,2/8,,1-5[8:1],1,1,1,1b,,,,
{16}6,,3/7h[4:1],,,,8,,1/6,,2,2,4h[8:1],,3,,4h[8:1],,2h[4:1],,,,1,,
{16}3/8,,7,7,5h[8:1],,6,,5h[8:1],,7h[4:1],,,,8,,1/6,,2,,
{8}3^6[16:3],5^8[16:3],7^2[16:3],1^4[16:3],,,5x-1b[8:1],5x,,,
{16}2,,7/3h[4:1],,,,4,,5/2,,6,6,8h[8:1],,7,,8h[8:1],,6h[4:1],,,,5,,
{16}7/4,,3,3,1h[8:1],,2,,1h[8:1],,3h[4:1],,,,4,,5/2,,6,,
{8}7^2[16:3],1^4[16:3],3^6[16:3],5^8[16:3],,,1x,1x,
{8}4h[4:1]/6h[4:1],,,4-1[8:1]/6h[4:1],,,,,1pp1[8:3]/6h[4:1],,,,,,,1,
{8}8h[4:1]/2h[4:1],,,8-5[8:1]/2h[4:1],,,,,5pp4[8:3]/2h[4:1],,,,,,,,
{8}5h[4:1]/3h[4:1],,,5-8[8:1]/3h[4:1],,,,,8<4[8:3]*q2[8:3],,,,,,,,
{8}1h[4:1]/7h[4:1],,,1-4[8:1]/7h[4:1],,,,,3/5h[2:1],,
{16}D7,D8,D1,D2,D3,,5h,,5h,,,,
{16}3h[4:1]/5q1[8:1],,,,,,2,,,,3,8,3^6[8:1],8,3,,
{16}7h[4:1],,,,8,,1/6,,,,2,5,2^7[8:1],5,2,,
{16}6h[4:1],,,,5,,4p8[8:1]/6h[4:1],,,,,,6,,,,
{16}7q3[8:1]/5h[4:1],,,,,,5,,,,4/6,,4/6,,,,
{16}7h[4:1]/1q5[8:1],,,,,,6,,,,7,4,7^2[8:1],4,7,,
{16}3h[4:1],,,,4,,5/2,,,,6,1,6^3[8:1],1,6,,
{16}2h[4:1],,,,1,,8p4[8:1]/2h[4:1],,,,,,2,,,,
{16}3q7[8:1]/1h[4:1],,,,,,1-5[8:1],,,,,,,,
{8}2-8[8:1],3/5h[4:1],,,6-4[8:1],1h[4:1]/7,,,,
{8}2>6[4:1],,6V41[4:1],,7,,8,
{8}7-4[8:1],2h[4:1]/6,,,3-8[8:1],6h[4:1]/2,,,,
{8}7V51[4:1],,1V37[4:1],,4,4,,
{8}2-6[8:1],4/8h[4:1],,,7-3[8:1],1h[4:1]/5,,,,2qq7[2:1],,7,7,6h[4:1],,,
{8}6qq3[2:1],,7,8,1,2w6[8:1],,,,
{8}4hb[2:1]/8hb[2:1],,,,
{16},,,,A7,E7,E6,E5,1x^6b[8:1]/D4,,
{16}2,,{32}1/5pp2[16:5],,,,,,,,{16}2/5,,,3,,,3,,4-1b[8:1]*-7b[8:1],,
{16}3/5,,{32}4-2-8-6[16:5],,,,,,,,{16}4,,,5,,,5,,2/6pp2b[16:5],,
{16}3,,{32}4qq5[16:5]/6,,,,,,,,{16}4,,,1x,,,8qq3[8:3],,
{8}7>3[4:1],6,,,,
{8}4,5,6,1/7,2-6[8:1],3,2/4v1[8:1]*v7[8:1],,
{8}4,,3>6[4:1],,6,5,4pp3[4:1],,
{8}3/4,2,1,8-3[8:1],8,6-2[8:1],6,5-1[8:1],5,7-3[8:1],7,6-2[8:1],,,,
{16}6bx-2b[8:1],,,,,,,,
{8}4x/8x^3b[8:1],
{16}7,,{32}8/4qq6[16:5],,,,,,,,{16}4/6,,,8,,,8,,1^4b[8:1]*^6b[8:1],,
{16}8/2,,{32}1-7-3-5[16:5],,,,,,,,{16}1,,,6,,,6,,7/3qq7b[16:5],,
{16}6/4,,{32}5pp4[16:5]/3,,,,,,,,{16}5,,,8x,,,1pp6[8:3],,
{8}2<6[4:1],3,,,,5w1[8:1],,,,,
{8}3/7-2b[8:1],{16},3,7,,4v7[8:1]*-1[8:1],,5,,4,,,,,,
{8}3-1[8:1],4,7-5[8:1],8,4,3,2/5,
{16}3,4,2/6,,1/8,,6,5,4/7,,8-4[8:1],1,8,1,8,,,,,,
{8}1b-4b[8:1]/8b-5b[8:1],,,,,Cf,,,
{16}2/6h[4:1],,,,5,,4^7[8:1]/7,,3,3,4,,1p5[8:1],,2,,1/3h[4:1],,,,4,,
{16}2/5^2[8:1],,6,6,5,,8q4[8:1],,7,,6h[4:1]/8,,,,5,,4/7,,3,,
{8}2^7[16:3],8^5[16:3],6^3[16:3],4^1[16:3],,,8x-4b[8:1],8x,,,3,
{16}6/2h[4:1],,,,1,,8^3[8:1]/3,,7,7,8,,5p1[8:1],,6,,5/7h[4:1],,,,8,,
{16}6/1^6[8:1],,2,2,1,,4q8[8:1],,3,,2h[4:1]/4,,,,1,,8/3,,7,,
{8}6^3[16:3],4^1[16:3],2^7[16:3],8^5[16:3],,,4x,4x>4b[2:3]*<4b[2:3],,,
