&title=終の舞姫
&artist=Se-U-Ra
&first=0
&des=sin(MX)
&lv_5=14+
&des_5=sin(MX)
&inote_5=
(202){4},{12},,,{6}4h[3:1],5,5,
3,3h[2:1]/5v6[4:1],,,,2,
2h[2:1],{12}B7,B6,{6}B5,4xh[3:1],3,3,
5,6h[3:1],2,1h[2:1],8,{12}E2,E3,
{6}E4,{12}5xh[3:1]/B8,B1,B2,B3,{6}B4,7,8,
{3}8,{6}B5/E5/E4/B3,2,1,1,
{3}1,{6}5/7h[3:1],B8,C,B4,
6h[3:1],{12}E4,E3,{6}E2,1xh[2:1],{12}E1,E8,E7,E6,
{6}E5,2xh[12:1],5xh[12:1],8bx-6>5[6:1]*-5[6:1],{12},{4}8-2[6:1],
8,{12}5b,6,7,{6}8-4[6:1],{12}3,3,,2>5[6:1],
,,5,6,7,8<4[6:1],,,4,3,2,1,
8h[2:1],E6,E5,E4,E3,E2,{6}1xh[2:1],{12}6,5,4,3,
2,8,7,6/4,3,2,{6}1b/7bh[3:2],,B5/E5/A5/D5,
,E3/A3/D3/B3,{12},6h[12:1]/5h[12:1],,4h[12:1]/3h[12:1],,7h[12:1]/5h[12:1],,2h[12:1]/4h[12:1],
,8h[12:1]/6h[12:1],,{4}1h[12:1]/3h[12:1],{24}8b>5qq7[1:1],7,6,5,{1},{4},{16},{48},{4}8-5[6:1]/5v8[6:1],
8b/5,{6}3h[4:1],{12}4,4v7[6:1],,,{6}6,
{12}5,5v2[6:1],,,{6}2,{12}1,1v6[6:1],,,6>3[6:1],
7,8,1,,,{6}1,{12}2,2>5[6:1],,,{6}2/7,
{12}6,6<1[4:1],,,2,3,4,5,2,3,
4,5,3,4,5,6,{6}8bh[4:1],{24}E1,B1,{4}B2,
{6}4h[4:1],{24}E6,E7,{4}E8,{6}2h[4:1],{24}7,6,{4}5-7[6:1]*-1[6:1],
5>2[6:1],5,8p4[6:1],8/2,
6/3p7[6:1],3/4,{12}6,5,4,3,2,1,
8/4,7/3,6/2,1-5[6:1]/5-8[6:1],,,{4}1b/5>2[6:1],7,
{12}8,7,6,5<8[6:1],,,1<5b[0.495##0.297],2,3,4,,4,
3,2,1,8-4[6:1]*-3[6:1],,,{4}8,2/5V71[24:5],
5/3,4p7[4:1],{12}4/7>2[24:5],6,5,4,,5,
{4}5>2[6:1]*-1[6:1],5,{12}7h[4:1],E8,E1,E2,,,3h[4:1],
E4,E5,E6,,,8h[2:1],E2,E3,E4,E5,E6,
E7,E8,E1,6bx/E2,,,7,6,5,8,7,6,
1,8,7,2,1,8,{16}4,3,2,1,6,5,4,3,
{24}8b,7,6,5,4,3,2,1,8,7/3,6/2,5/1,{2}8xh[4:7]/4xp3>6[4:5],
{6},,,,,,,,,2b,
{12}4,4>1[6:1],,,{6}7,
{12}6,6<1[6:1],,3,{4}3-1[6:1],3-6[6:1]*-5[6:1],
3,{12}7v4[6:1],,8,{4}8,1h[4:1],
5p1[4:1],1-7-5-3b[4:3],{2}4bh[4:3],
{4},,2-5[6:1],2/4,
{6}4b,{12}4,5,,5,{4}6bh[4:1],7v5[4:1],
5<1[4:1],1q6[4:1],{32}E8f,B7/D8/B8/A7/A8,{4},{16},{64},,{96},{12}7,
{6}6,{12}5,4,,2,{6}3,{12}2,1-7[6:1]*-4[6:1],,,{4}1,
E6f/A6/D6/A5,7-4[6:1],7/2,
{6}3-8[6:1],{12}6,6pp1[2:1],,,{4}2>5[4:1],2,
{32},,,,,,,,E7,B6,B5,E5,,,,,{4}2b,5pp8[2:1],
1>4[6:1],1,2bh[#0.8910904],{12}B5/E6/E5/A5,,,{4}A7/D7/B7/E7,
8b,{12}8,8,2,1h[2:1],,,5,
4,3,2>5[4:1],,,1,8,7,6,,,3,
3,5,4,,,7,7,5,7,4,6,
3,5,2,4,1,3,{24}1bx,2,3,4,,,1,2,3,4,,,8,
7,6,5,4,3,{4}2h[1:2]/8b<5s1>4[4:7],{1},,{12}7,
C,6,4,,,2,
C,3,5,,,7,5,6,4,5,3,
6,2,7,1h[4:1],,,7,6,5,2,3,4,
5,6,7,3,2,1,8,7,6,3,2,1,
7,6,5,3,2,1,{6}8h[4:1],{12}7,7,,,{6}5h[4:1],
{12}4,4,,,2,4,2,7,5,7,
3,4,3,6,5,6,2,1,2,7,8,7,
1,2,3,4/8,7,6,{4}5b>4pp6[2:1],{12}2b,,2b,
,,,{4}B3f/A3/E3,8h[4:1],6h[4:1],
4h[4:1],3,2b/6b,{12}2/6,3/7,4/8,
{4}5/1<7[6:1],5h[1:1]/1pp4[4:3],,,,,7b/3b,
{12}7/3,6/2,5/1,
{4}8/4<6[6:1],8h[1:1]/4qq1[4:3],,,,,2b/6b,
{12}6/2,3/7,4/8,
{4}5/1-3[6:1],4h[1:1]/1-7-5v4[4:3],,,,,7b/3b,
{12}7/3,6/2,5/1,
{4}8/4-2[6:1],2h[1:1]/4-6-8-2[4:3],{1},{24}B3,
B4,E5,5xh[8:29],{1},{4},,,{16},{48},{24}B7,
B8,E1,1xh[8:13],{1},{4},,,{16},{48},{12}8b,
2,8,2,,,6,
4,6,4,,,2,4,3,7,5,6,
1,3,2,8,6,7,{24}1b>5[24:5],2>6b[24:5],3<7[24:5],4<8b[24:5],,,{4}1b,
,Cf,{12}1b-5[6:1],8,2,7,,,6-2[6:1],
4,7,3,,,3-8[6:1],8x,7,3-7[6:1],7x,6,
3,6x,5,{24}4bx,5,6,7,8,1,{12}2b-6[6:1],4,4,2b,,,7b-3b[6:1],
5,5,7b,,,1,2,3,7,6,5,
{24}3,4,5,6,7,8,{4}1b,{12}7-5[6:1],3,4,7-4[6:1],2,3,
7-3[6:1],1,2,7,8,1,2-4[6:1],5,6,2-7[6:1],6,7,
{4}2<8[6:1]*>5[6:1],2x,{12}B7/E8/A7,E4/B3/A3,E6/B5/D6/A5,E2/B1/A1/D2,,,5-8[6:1],
4,6,2,,,1<7[6:1],2,3,1,5,4,
3<5[6:1],1,2,3,,,1b,E2,E3,E4,E5,E6,
E7,E8,E1,5/E2,6/E3,7/E4,{4}8b/E5,{24}8b/4b<8[4:1],7/3,6/2,5/1,,,{12}1,
2,3,4>8[4:1],,,8,7,6,5,7,6,
5/1,4/8,3/7,6b/2b,{24},,,,2b/6b>2[4:1],3/7,4/8,5/1,,,{12}1,8,7,
{4}6<2[4:1],{12}2,3,4,5,3,4,5/1,6/2,7/3,
4/8,5/1,2/6,7b-4[6:1]/3b-8[6:1],,,{2}3x/B1f/B6f/7x<2[12:5],
{12}1,1,1,1b,{24},,,,8-3[8:1]/4-7[8:1],7/3,6/2,5/1,,,{4}8-5[8:1]/4-1[8:1],
8/4,6b/2b,{12}5bx/7bx,6/4,5/3,4/2,,,3bx/1bx,
2/4,3/5,4/6,{24},,,,8bh/2bh,7/3,{12}4/6,{24},,2h,3h,4h,5h,{12}7,
6,7,6,5x,5,4,{24}8b/4x,7,6,5,{12}3,4,3,4,
5x,5,6,{24}1b/6x,2,3,4,,,{4}7b/4bh[24:19],{24}7,8,1,2,{12}3,
{24}5,6,7,8,1,2,{12}3,{24}5/3,6/2,7/1,8bxh[24:1],,,,,,,8b/1bh,7,6,5,4,3,
1b,2,3,4,5,6,8b,1,2,3,4,5,{2}6b/2bs6[4:5],
{6},,,,,,,,,6h[2:1],
E6,C,
{3}E2,{6}B6/E6/E4/B3,2h[#0.5940628],E8,C,
{3}E4,{6}7h[6:1],C,6h[6:1],C,
5h[6:1],C,4h[6:1],C,{12}B8,B1,{6}B2,
{12}E8,E7,E6,E5,E4,E3,{2}1xh[1:1]/E2,
,8xs4[4:7],
E
