&title=Yorugao
&artist=An & Ryunosuke Kudo
&first=0
&des_6=GAY
&lv_6=14+
&inote_6=(182)
{1},
{8},,,,,
{48}E1,B1,B2,C,B6,B5,E5,,,,,,,,,,,,
{8}6h[4:1]/8h[8:1],,8,1/5-7-4-8[8:5],,,E4h[4:3],,,,,,
{8}7,5,4,2,
{8}3h[4:1]/1h[8:1],,1,8/4-2-5-1[8:5]b,,,E6h[4:3],,,,,,,
{32}8b,E1,B1,B2,E3f,,,,,,,,
{16}3,4,3,4,3,4,2b-5-8[8:5]b,,
{4},
{4}4-1-6[2:1],,,
{8}3,1,8,6,7h[4:1]/5h[8:1],,5,4/8-5-2[8:5]b,,,6-1-4[2:1],,,,,,
{24}8z4[1:1],7,6,5b/1bs5[8:7]b,,,,,,,,,
{1}E1f,
{24}4,5,4,
{16}5,,,34,,,5v8[8:1]*v2[8:1]/6,,,,5,,,,
{8}1-6[8:1]b,,1x/6x,,
{8}5,34,2,1x/8x-4-6[4:1],,,,3-1[8:1],7,3,8-6[8:1],4,8-3[8:1]b,,
{8}3x/8x,,
{8}4,65,7,8x/1xpp2[4:1],,,,4,1>4[8:1]/5p8[8:1],,15,,
{8}7-5[8:1],4,7-1[8:1],2,7-3[8:1],4,7,5,46,57,68,17,
{8}2h[8:1],4h[8:1],6h[8:1],8h[8:1],1v3[8:1],6,1v7[8:1],4,1-5[8:1],6,1,
{8}8,47,36,25,14,3h[8:1],1h[8:1],7-3[8:1],5,
{8}4>1[8:1]b/7<4[8:1]b,,4x/7x,,8,76,5,4x/3x-6-1[4:1],,,,
{8}8-4[8:1],3,8,2-6[8:1],7,
{8}5<8[8:1]b/2>5[8:1]b,,2x/5x,,
{8}1,23,4,5x/6xpp7[4:1],,,,1,2p5[8:1]/6<1[8:1],,26,,
{8}3-1[8:1],8,3-5[8:1],6,3-7[8:1],8,3,1,82,13,24,53,
{8}6h[8:1],8h[8:1],2h[8:1],4h[8:1],5v7[8:1],2,5v3[8:1],8,5-1[8:1],2,5,
{8}4,83,72,61,58,
{16}7,6,7,6,7,6,7,6,
{8}8bw4[4:1]b,,,Cf/B6/B2/B8/B4,,,
{8}1-4[8:1],5-8[8:1],1,5,2-5[8:1],6-1[8:1],2,6,
{8}4<8[8:1]b,8>4[8:1]b,
{32}4x,A5,A6,A7,A8,A1,A2,A3,,,,,Cf/B1/B5/B3/B7,,,,
{4},
{8}8-5[8:1],4-1[8:1],8,4,7-4[8:1],3-8[8:1],7,3,
{8}5bh[4:1],,
{16}2,2,6,6,4,4,8bz4[8:1]b,,,,,,
{8}2-5[8:1],8-3[8:1],2,8,1-6[8:1],7-4[8:1],1,7,
{8}5V31[8:1]b,1V75[8:1]b,
{32}5x,D4,D3,D2,D1,D8,D7,D6,,,,,
{4}Cf/E1/E5/B5/B1,
{8},
{8}7-4[8:1],1-6[8:1],7,1,8-3[8:1],2-5[8:1],8-4[8:1]b,2-6[8:1]b,8b,2b,
{4}5x<8[8:1],
{24}A5,A4,A3,A2,,,
{12}1>4[8:1],8,8,8,,7,5-2[8:1],6,6,6,,7,1v6[8:1],8,8,8,,7,
{24}5x>6[4:1],4x>6[24:5],3x>6[6:1],2x<6[8:1],,,
{24}A5,A4,A3,A2,,,
{12}4,4,4,45,5,5,52,2,2,26,6,6,86,8,8,1bxq5[8:1]b/7bxp3[8:1]b,,,1x/7x,,,
{24}A4,A5/A3,A2/A6,A1/A7,,,
{12}8,2,6,8bh[6:1],,4,4,2,6,4bh[6:1],,5,5,3,7,5bh[6:1],,1,
{12}3b,4,2h[12:1],6,5,8h[12:1],
{12}1,4,3h[12:1],7,5,6h[12:1],1,3,2h[12:1],
{12}8,6,7h[12:1],1,5,3h[12:1],8,2,6h[12:1],
{4}4x>1[8:1],
{24}A4,A5,A6,A7,,,
{12}8<5[8:1],1,1,1,,2,4-7[8:1],3,3,3,,2,8v3[8:1],1,1,1,,2,
{24}4x<3[4:1],5x<3[24:5],6x<3[6:1],7x>3[8:1],,,
{24}A4,A5,A6,A7,,,
{12}5,5,5,54,4,4,47,7,7,73,3,3,13,1,1,8bxp4[8:1]b/2bxq6[8:1]b,,,8x/2x,,,
{24}A5,A4/A6,A7/A3,A8/A2,,,
{12}1,7,3,1bh[6:1],,5,5,7,3,5bh[6:1],,4,4,6,2,4bh[6:1],,8,
{12}6b,5,7h[12:1],3,4,1h[12:1],
{12}8,5,6h[12:1],2,4,3h[12:1],8,6,7h[12:1],
{12}1,3,2h[12:1],8,4,6h[12:1],1,7,3h[12:1],
{32}5bh[1:0],
{32}4h[1:0]/6h[1:0],7h[1:0],8h[1:0]/2h[1:0],1h[8:5],,,,
{4},,{16}2,3,4,5,
{16}8h[1:1]/6,,,,,,,,,,,,,,6,5,
{4}4h[1:2],,,,
{4}6h[4:1],,7h[4:1],,
{4}8z4z8[4:7],,,,
{4}1h[4:1],,2h[4:1],,
{4}3z7[2:1],,7V51[2:1],,
{4}1z5[2:1],8,7-3[8:1]b,7x/Cf,
{8}1h[4:1]/5,,5,,5/1,,5,1V37[8:1],
{4}5,5,5/7h[4:1],4,
{8}3h[4:1]/7,,4x-1[8:1],,5h[4:1],,4x-8[8:1],,
{8}3h[4:1],,2x-6[8:1],,1h[4:1],,7x-3[8:1],,
{16}8,,8,,15,,5,,3,4,2,,21,,1,,
{16}28,,3,,47,,6,,6,5,7,,2,1,3,,
{16}7,1,7,1,7,2,7,3,7,4,7,5,7,5,6,5,
{16}4,5,3,5,2,5,1,4,8,3,7,2,6-8-4-2[8:7],1,5,8,
{16}4b<2[8:5]b,,,,,,,,,,,,,,,,
{24}8,1,8,{16}1,,,87,,,2V48[8:1]/1,,,,28,,7,,
{8}6-3[8:1]/2v7[8:1],,2<4[16:3]/6,,5,,
{16}3,2,1/5,6,
{8}4-2[8:1]/7,5,4/6V84[16:3],,1,,{16}5,6,7/2,3,
{16}4/1<6[8:1],,8,,1/5-1[8:1],,,,52,,3,,4-8[8:1]/8,7,6,5,
{8}4/2w6[8:1],1,2,,48,37,2/6-1[8:1],5,
{8}6/2-5[8:1],3,7v6-4[4:1]/2,6,7/1v2V83[4:1]b,2,1,,
{8}7-4[8:1],6,2v3-5[4:1]/7,1,8v7V16[4:1]b/2,7,8,,
{16}5,4,3,2,15,6,7,8,{16}15,4,3,2,
{32}1h[4:1]/5,6,7,8,,2,3,4,
{16}5s1[4:1],,,,5x/4x,,2,,{16}2,5,3,4,8v3[8:1]b,7,1,6,
{24}8,,,5-1[8:1],6,7,8,,,5>2[8:1],,,8V24[4:1]b,7,6,5,,,8b,,,,,,
{16},,6h[4:1],,8,,1,,2h[4:1],,1,,8,,7h[4:1]/3,,
{24}2,,,1-5[8:1]b,2,3,4,,,1<6[8:1],,,4z8[4:1]b,3,2,1,,,4b,,,,,,
{8}5x,B7,B3,B1/B5,28,3,46,7,
{16}7,5,6h[8:1],,3,5,4,,78,,16,,2v4[8:1]/5-1[8:1],,,,
{16}25,,,,3,8,3h[8:1],,6,4,5,,12,,38,,
{24}4>1[24:2]/7<4[24:2],,,8,,,47,,,{24}8,7,6,5<1[8:1]b,4,3,2,1,8,5b,,,,,,
{16}26,,
{24}5,4,5,4hx[8:1],,,,,,
{12}83,83,83,16,16,16,
{16}7b-4V61[4:1]b/2b,,,,
{16}7,,Cf/B3,,,,4x,8,2,2,6,5,
{16}7,7,2,6,1,5,8,4,{16}7/3,8,1,2,{24}3/6,5,4,3,2,1,
{16}8/4,,3pp5[8:1]/7pp1[8:1],,62,,37,,,,8x,4,7,3,6,5,8,3,4,1,5,2,6,3,7,4,8h[4:1],,{48}E4,E3,E2,E1,E8,E7,E6,,,,,,
{16}4b/8b,,{24}2-6-2[8:1],6,3,7,,,{16}2b/C,,,,5x,1,7,7,3,4,
{16}2,2,7,3,8,4,1,5,{16}2/6,1,8,7,{24}6/3,4,5,6,7,8,
{16}1/5,,2V48[8:1]/6V84[8:1],,48,,2/6,,,,3,3,{24}8,7,6,4,3,2,
{16}5,5,{24}1,2,3,6,7,8,{24}4,3,2,1/8,7,6,5/4,3,2,1,1,1,1,1,1,
{16}1xs5[8:1]*z5[8:1]b,,,,
{32}1bx>8[4:3],B1f,Cf,B5f,,,,,
{4},,
{8},
{16}E5,E4,B2h[4:11]/E3h[4:11],,,,
{8}E1,,,E8,,,,,
{16}E7,E6,B5h[8:11]/E5h[8:11],,,,
E
