&title=さよならスーヴェニア
&artist=柊南
&first=-3.34
&des_5=S_a_k_i_
&lv_5=13
&des=S_a_k_i_
&inote_5=(54.5){4},{16},,,,,,,,,,,,6/5,
6/5h[16:5],{8}B6,7,E7,{16}3/4,3/4h[16:5],{8}B3,2,C,
5h[8:1],{32}4h[4:1],,,2,,,,,{16}C,3,{8}3h[8:1],{32}5h[4:1],,,7,,,,,{8}B7,
{16}4/6v1[16:1],6/4h[16:3],{8}3v8[16:1],6,3,{16}5/3-6[16:1],3/5h[16:3],{8}7-2[16:1],3,7/4,
8h[8:1]/3<6[0.9633##0.2752],{32}2h[16:5],,,3,,,,,{16}B6,7h[16:3],{8}8-4[0.9633##0.2752],{32}3h[32:3],,,8,,,{16}E3,C,E8,
{24}6,{48}6,4,,4,{16}7,{48}3,,3,{24}5,{48}5,2,,7,{16}7h[8:3],6,A8/E1/B8,B2/E3/A2,A4/B4/E4,B6/E6/A6,,3h[16:3],6,8,
{24}2-6[16:1],{48}2,4,,4,{16}1,{48}8,,3,{16}2,E4,E3,E2,{8}E1,{16}6/7>2[8:1],7h[8:1]/6h[8:1],,,7/6,6,
,,3/2<7[8:1],2h[8:1]/3h[8:1],,,2/3,3,,,C,6,6h[8:1],4,4h[16:1],2h[16:1],
{32}7h[32:3],,,8h[32:3],,,{16}1b-5[1.3761##0.2752],,,,,{8}1b/8,{48}7-4[16:1],,,,,3,{16}2-6[16:1],4,7/8-3[16:1],1,
{48},,,,,,,,,,,7,{24}8-4[16:1],{48}6,5,,2,{24}1-5[16:1],{48}3,4,,,{8}8b,{48}1b,,,,,6,{16}7>2[16:1],8h[16:1],3<6[16:1],4h[16:1],
,,,7h[16:3],8,6,3h[32:7],4,{32}2,,,8,,,{16}2-6[16:1],1-5[16:1],7/8,3/4,2,
{32}1,,,8h[4:1],,,{16}3,{32}4,,,6h[32:3],,,,,{16}2-6[16:1],A1,8-4[16:1],A7,{4}2q1>8[8:3],
{32},,,,,,B1,B2,B3,B4,{96},,,,,,{24}5,{48}5,1,,1,{24}8-4[16:1],{48}8,2,,2,{24}5,{48}5,3,,7,{24}8,{48}6,6h[16:1],,3,{24}3h[24:1],{48}1,1h[16:1],,,{16}7-3[16:1],
6/7,4-8[16:1],3/2,7/1,2,4/5,7,{32}6h[32:3],,,4h[32:3],,,{16}2h[32:3],{32},8h[32:3],{96},,,,{48}6,{24}6h[16:1],{48}4,4h[16:1],,,,,{24}8x-3[16:1],
{48},2x-5[16:1],,,4x-7[16:1],,,6x-1[16:1],,,{24}8x,{48},2x,,,4x,,,6x,{16}2-6[16:1],3xh[8:1],1-5[16:1],8,2/3,3,1/8,8,
{32}7h[16:3]/2-5[16:1],,,6-1[16:1],,,{16}8,{32}2/4h[16:3],,,6,,,,,{16}3/2,5s1[8:1]/4z8[8:1],7/6,1/8,,,,,{8}5h[8:3],
E4,,C,3h[8:3],E6,,C,
6h[2:1],B2,1q4[16:3],7-4[16:1],,,6h[16:1]/7-4[16:1],2h[16:1]/3-8[16:1],
7/1,5/3,{16}8/7-3[16:1],1,4/2-5[16:1],5,{8}7s3[8:1],2x<5[8:3],{16},,,,3,
2,1-5[1.6514##0.2642],8-4[1.9266##0.2752],,,,,{8}2/1b,{48}7/8b,,,,,6,{16}5-2[16:1],2/3,8/1-4[16:1],7/6,
{48},,,,,,,,,,,7,{24}8w4[16:1],{48}1,2,,3,{24}4w8[16:1],{48}5,6,,,{8}8b,{48}4b,,,,,2,{16}8-4[16:1],5/7,3/2w6[16:1],1/7,
,,,,7xh[8:1],6,5h[8:1],4,3h[8:1],2,1h[8:1],8,7-3[16:1],5/6,4-8[16:1],2/8,
1-5[16:1]*-5[16:1],2,3>1-7<5-3[2:1]*-1<7-5>3b[2:1],4x,{4},,,{128}3,
4,{64}5h[64:7],,,,,,,,,,,{16}Cfh[16:3],E7h[8:1],E3h[16:1],{48},,,,,,{24}1b-5[16:1],{48}7,5,,5/3,,,1,6-2[16:1],,6,{24}1,7,{48},6,{24}4,{48}4,6,,3,
,,1,3,,1h[12:1],,,5,5h[48:11],,4x,{24}4xq1[16:1],3x,{48},3x,2,1,8,7,6,5,{24}4,{48}3x,3xh[8:1],,2,,,1,1h[16:1],,7,{24}7h[8:1],6,{48},5,{24}5xh[16:1],{48}4,4xh[16:1],,8x,
{16}8x-4[16:1],E7/B7,2-6[16:1],B3/E4,1/8,B2/B3,1x/2x,B8/E8,7/1q5[16:1],8,{24}1/7p3[16:1],2x,{48},,{16}7,A8/B8,1,A8/B8,
{32}1h[32:3],,,4h[32:5],,,{16}6,{32}8h[16:3],,,6h[32:3],,,,,{16}8/2-5[16:1],B3/A3,4/6-1[16:1],B7/A7,8/2,D8/E8/A7,6/4,D4/E4/A3,
{24}2/8,{48}4,6,,7/1,,,7,8,,2,{24}1-5[16:1]*-5[16:1],6/4,{48},1,8-4[16:1]*-4[16:1],7,6,5,,,{16}2/1b,3,7/8b,6,7/8V64[8:1]*<4[8:1],2/1,3/4V28[8:1]*V28[8:1],6/5,
,,,7,6w2[16:1]*w2[16:1],1/2,4/3w7[16:1]*w7[16:1],7/8,{8}6b,3b,{16}5h[16:3]/1<5[16:1]*p5[16:1],3,1>5[16:1]*q5[16:1],7,
,,,,6xh[8:1],B7/B6,8h[8:1],B8/B1,2h[8:1],B2/B3,4h[8:1],B4/B5,6-2b[16:1],7,8-4b[16:1],1,
2b<5[8:5]*<5[8:5],3,4b>5b[2:1],5,,,,,{8}E3/B2/B3,E1/B1/B8,B7/B6/E7,B5/B4/E5,
{24}1/7,{48}5,3,,2/8,,,3,4,,2,{24}1-5[16:1]*-5[16:1],7,{48},2,3,4,5,6,7,8,{2}1b,
E
