&title=いますぐ輪廻
&artist=なきそ/初音ミク
&first=-1.1299993
&des=rain
&clock_count=4
&des_1=rain
&des_2=rain
&des_3=rain
&des_4=rain
&lv_5=13+
&des_5=rain
&inote_5=(145)
{1},
{4}Chf[4:1]/1pp1[8:3],
{16},,,,,,,,,,71,,6pp5[8:3],,78,,,,,,,,,,,,3,4,3,,25,,6,6,5,,75,,3,5,,24,,,1qq6[8:3]*pp4[8:3],,1,,,,,,,,,,,,65,,6qq8[8:3]/5,,,,Cf,,,,,,,,,,82,,3qq4[8:3],,21,,,,,,,,,,,,,,,,6,5,7h[8:3],,,,,,4,5,3h[4:1],,,,7-4b[8:1],,,,7/1x,,,,4h[8:1]/1h[8:1],,,,8h[8:1]/5h[8:1],,,,7h[8:1]/6h[8:1],,,,6x/8,,,,7h[8:1]/1h[8:1],,,,8h[8:1]/2h[8:1],,,,1h[8:1]/3h[8:1],,,,6x/5,,,,2h[8:1]/4h[8:1],,,,6h[8:1]/5h[8:1],,,,7h[8:1]/1h[8:1],,,,1/2x,,,,8h[8:1]/3h[8:1],,,,7h[8:1]/5h[8:1],,,,6-1b[8:1]/5,,,,6b/3,,,,28,,3,,54,,6,,7-4[8:1],5,,,71,,,,43,,2,,71,,6,,2-5[8:1],5,,,82,,,,75,,8,,12,,3,,6-1[8:1],5,,,64,,,,1,2,1,3,8-4-6[8:2],1,8,2,,,,,,,,,,,6,5,6,,3,4,3,,5,4,5,,8,7,,1,,1v6[16:3]*v4[16:3],,,,,,,,,,,8h[8:1],,7h[8:1],,6h[8:1],,2h[8:1],,3h[8:1],,4h[8:1],,,,5,,64,,73,,28,,1-6[8:1]*-4[8:1],,,,1,,,,64,,7,,5,6-8-2[4:1],,75,,,,,,,,,13,,84,,7>2[6:1],5,7,5,7,,,,4-2-8[6:1],1,,,,,,,5<2[6:2],8,,,,,2,,3,,4h[16:9],,E3,E2,E1,E8,E7,,6z2[4:1],,,,,,,,,,82,,3,,1,2,,8-5-7-4[8:3]/2h[16:11],,,,,,,,,,,,,2,,Ch[16:1]/1s5[8:2],,,,,,,,,,64,,7,,5,6,,7h[16:11]/5qq1[8:3],,,,,,,,,,,,,1,,8qq8[4:1]/Ch[16:1],,,,,,,,,,8/2b,,3-8[8:1],,6,4,,7,,,78,,6h[8:1]/5h[8:1],,,,6b<1[8:1],,4,7,,2,,2,,1,2,1,3,8,1,8,2-4-6-8[4:2],,,,,,,,1,,,,,,5,,,,15,,26,,37,,8<5[8:1]/4>1[8:1],,,,8-4[8:1]/4,,,,8b/5,Cf,,,5-7[8:1],,,,5-3[8:1],,4,,65,,7,,8<5[8:1],2,,,8-4[8:1]/3,,3,,8,,3,3,4>1[8:1],,5,,64,,7,7,8-3[8:1],,6,6,8,7,,,73,,64,,7,5,6,4,5,3,4-7[8:1],2,,,1,,1-5[8:1],,,,8b/1,Cf,,,6-8[8:1],,,,6-4[8:1],,3,,62,,,,1>4[8:1],,7,7,1-5[8:1],,6,,1,,,,,,6,5,7,,,,,,3,4,2,,,,7-2[8:1]/6-3b[8:1],,,,7x/6x,Cf,,,,,2,1,2,,,,,,7,8,7,,1,8,1,,6,5,6,,2,4,,3,,3-7-4[8:2]*-8[8:1],,,,,,,,,,,1h[8:1],,2h[8:1],,3h[8:1],,4h[8:1],,5h[8:1],,6h[8:1],,7h[8:1],,8h[8:1],,2h[8:1],,4h[8:1],,6h[8:1],,8-5[8:1]*-3[8:1],,,,8,,,,,,,,,,,,,,,,,,,,7/1b,,6,6,5,,75,,64,,6,,6/8-3[8:1],,6,,,,5,5,3,,24,,35,,3,,1-6[8:1]/3,,3,,,,4,4,7,,65,,71,,7,,7/4-8[8:1],,7,,,,6,6,1,,82,,54,,4,,7-4[8:1]/4,,4,,7b/2b,,3,3,5,,64,,75,,8,,6/4<7[8:1],,2,,,,1,1,8,,75,,64,,1,,5-2[8:1]/3,,7,,,,8,8,2,,13,,4,,65,,8,,71,,8,1,8,2,7,8,7,1,6,5,6,4,5<8>4<5<7>2>6[8:28],,,,3h[4:8],,,,,,,,,,,,,,,,,,,,,,,,,,,,,,,,,,,,,,,,4h[8:4],,,,,,,,,,,,,,,,,,E7,,E6,,,,5<2[8:6],,,,4,,,,4,,,,4,,,,3>6[8:6],,,,4,,,,4,,,,4,,,,4-2[8:1],,,,,,,,5s1b[8:2],,,,,,,,,,,,8-4[8:1]/2,,7,,82,,3,3,,6,5,,6,5,7,4,5qq2[8:3],3,7,5,6,,,,7,,,,71,,71,,8,2,7,3,6<1[8:1],4,5,3,6,,,,82,,7,7,4,,5pp1[8:2],,2>5[8:1],,5,,2,,,,7-5-8[6:1],5,8,4,7,,,,2-4-1[6:1],4,1,5,2,,,,8-6-4v7[3:1]*-2-4v1[3:1],,7,,8,,,,C,,,,7/1,,,,8q1<8[3:1],,,2,2,,,,,,2,,3,,4,,5/7-1[8:1],,,,7/4-8[8:1],,3,,4/6-1[8:1],,7,,2<6<2[3:1]/6,,3,,5,,,,3,,4b-1[8:1],,8,,47,,6,,5<8[8:1]/8>3[8:1],,,,85,,,,1<6[8:1]/4>1[8:1],,,,14,,,,15,,62,,73,,8<5[8:1]/4>1[8:1],,,,8-3[8:1]/4-7[8:1],,,,8-5[8:1]/4b-1b[8:1],,,,8/4b,Cf,,,7-4[8:1]/3,,,,1/7-1[8:1],,2,,73,,4qq7[8:3]*pp1[8:3],,,,4b,,,,Cf,,,,,,,,7,8,6,,,,C,,2qq8[8:1]*v4[8:1],1,2,
E
&lv_6=14
&des_6=雨随风落
&inote_6=(145)
{1},
{4}6h[4:1]/2,
{16}4b,,6-1[8:1],6,3,,4,,4-2[8:1],,8,,4/8,,,,1b/5b,,6-1[8:1],6,8,,1,,2-4[8:1],,1,,82,,,,75,,6,5,7,,84,,2,1,3,,84,,7,,7,5,6,5,8,5,6,5,8p4[8:1],,4pp6[8:1],,8/3,,,,2b,,4-8[8:1],4,1,,2,,3-5[8:1],,8,,73,,,,8b/5b,,7-4[8:1],7,5,,3,,2-5[8:1],,1,,62,,7,7,5,,64,,3,3,5,,6pp8[8:1]/4>1[8:1],,7,,,,,,8b/1b,,7-4[8:1],5,6,,73,,2-4[8:1],,1-5[8:1],,2,,1,,8bx,,2-5[8:1],4,3,,26,,7-5[8:1],,8-4[8:1],,7,,8,,1bx,,7-4[8:1],5,6,,71,,2-5[8:1],,3-7[8:1],,2x,,3x,,5bx,,6-1[8:1],7,5,,6/2,,2-5[8:1],,3>8[8:1],,2x,,3x,,5bx,,2-6[8:1],4,3,,24,,5-2[8:1],,4-8[8:1],,5,,4,,7bx,,6-2[8:1],1,5,,63,,4-8[8:1],,1-6[8:1],,4,,1,,2bx,,3>8[8:1],7,5,,83,,6-1[8:1],,1-5[8:1],,6,,2,,2,,3,5,4,,7,5,6,,2,4,3,5,4,,75,,8,,74,,,,24,,1,,25,,,,64,,7,,53,,2,,5-8[8:1]/4-1[8:1],,,,54,,,,8,,75,,64,,53,,7,,64,,53,,42,,6,,53,,42,,31,,5b-2[8:1]/2-4[8:1],,,,25,,,,83,,7,5,6,,8v2[8:1]/4,,65,,E5h[8:1],,,,,,1/3,,8,,7,5,6,4,5qq6[4:1],,73,,1,,2,,3qq2[4:1],,84,,7,,6,,5,,4/1-4[8:1],,32,,41,,5,5,4,,7-4[8:1]/5,,8,,73,,E3,,C,,E7,,5x<4[4:1]/4x,,3,,5/1h[4:1],,,,,,2,4,3,,6,,84,,Ch[8:1]/B2/B3/B6/B7,,,,1x,1,,,E3,,C,,E7,,5x<4[4:1]/4x,,3,,5/1h[4:1],,,,,,2,4,3,,6,,84,,Ch[8:1]/E3/B2/B3/E7/B6/B7,,,,1x,1,,,E3,,C,,E7,,5x/4x,,3,3,4,,2,,12,,E3,,C,,E7,,5x/4x,,3,3,4,,2,,12,,8,5,6,,3,5,4>7[4:1],,7,,6,,5,,4<2[4:1],,8,,1,,2<7V53[4:2],,,,,,,,,,,,,,1-5b[8:1],,,,8/1b`Cf,,6-1[8:1],6,5,,3,,2-4[8:1],,8,,7-3b[8:1]/2,,,,7b/1`Cf,,2-5[8:1],2,4,,6,,7-1[8:1],,3,,57,,,,14,,7,5,6,,34,,2,4,3,,75,,8,,2,4,3,4,1,4,3,4,1q5[8:1],,5qq3[8:1],,6-2b[8:1]/1,,,,6b`Cf,,4-1[8:1],4,1,,7,,6-4[8:1],,8,,6/2-6b[8:1],,,,4/2b`Cf,,5-8[8:1],5,1,,2,,3-5[8:1],,8,,73,,6,6,5,,74,,2,2,4,,3qq1[8:1]/4<8[8:1],,2,,,,,,
{32}8bhx/1b,B8,Cf,B4,A4,,,,
{16}5x/2x,,3,,64,,,,74,,6,,53,,,,52,,3,,74,,6,,25,,3,,5-8[8:1]/4-1[8:1],,,,54,,,,1,,24,,35,,64,,2,,35,,46,,57,,3,,64,,57,,86,,7x-4[8:1]/6x-1[8:1],,,,
{4}76,,,,,
{16}1b>4[8:1]/8b,,6,6,1,,5,,5-1[8:1]/4,,6-8[8:1],,5,,6,,2b>5[8:1],,8,8,2,,6,,5-3[8:1]/7,,8-4[8:1],,5,,8,,3b<6[8:1],,7,7,3,,8,,7/5-1[8:1],,4-2[8:1],,5,,4,,8,,6,4,5,,2,4,3,,7,5,6,4,5,,3b-8[8:1],,2,1,3,,7,,8/6>3[8:1],,1-5[8:1],,6,,1,,6b-1[8:1],,7,8,6,,2,,3<6[8:1]/1,,8-4[8:1],,3,,8,,2b-5[8:1],,3,4,28,,6-1[8:1],,3-7[8:1],,6,,3,,8,,7b-4[8:1],,6,5,71,,3-8[8:1],,6-2[8:1],,3,,6,,1,,
{4}8/2V46-8>5[4:12],,,,,,,,5,,6,,7,,
{8},E1,B2,,
{4}6<1p4[4:3],4,3,2,2<8q5b[4:3],5,6,7,7-4[8:1]*-3[8:1],,8-5[8:1]`8?-4b[8:1],,
{32}1bxh/5bx,B1,Cf,B5,,,,,
{16}6x/4x,,7-4b[8:1],7,5,,4,,3,,2/4,,1,4,3,4,2,5,4,5,3-7[8:1],,84,,6h[4:1],,,,8<5b[8:1],,1,1,8,,3,,2/4h,,1v6b[8:1],8,3,,14,,5,,5-2[8:1],,8-4b[8:1],,5,,8,,1,1,4,,53,,7,,7-2b[8:1],5,6,,74,,3-6[8:1],,1,2,8,,8,,7-4b[8:1],,85,,3-8[8:1],,1,,53,,4,,51,,3,,4>1V35[4:1]/7,,6,6,4,,,,7-2b[8:1],,,,73,,3,,84,,,,1<5b[8:1],,5,,1/4V61b[4:1],,2,,84,,2b-5b[8:1],,3,,2/4,,2x-6[8:1],,6,,8-3[8:1]/2,,7,,85,,6<2b[8:1],,4,,3,,3V58b[8:1],,1,,2,,3,,1/4<7b[8:1],,7,,4x/8xV25b[8:1],,2,,3-7[8:1],,4,,Cf`3/5b-8b[8:1],,,,1b-4[8:1]/5`B7f,,,,1b/8`B3f,,,,6/3>7[8:1],,7,,6V41[8:1],,5,,8-3[8:1],,7,,5b/8,,6-2b[8:1],,2,,3>8b[8:1]/6,,4x,,5,,4V28[8:1],,6,,5,,4<7b[8:1],,8,,1,,2qq8[8:1]*pp4[8:1]
&des_7=rain
