&title=INFINITY
&artist=Cosmograph
&first=0
&des=Lollisaki
&lv_5=14
&des_5=Lollisaki
&inote_5=
(175){4},,,,1bx>4[8:1],
1,{8}6,5,{4}7/4,
{8}6-2[8:1],2-6[8:1],{4}6,4qq2[8:1],4,
8x<5[8:1],8,{8}3,4,{4}2/5,
{8}3-7[8:1],7-3[8:1],{4}3,{2}5xh[4:1],
{4}4x>1[8:1],4,{8}7,8,{4}6/1,
{8}7-3[8:1],3-7[8:1],{4}7,1pp3[8:1],1,
5x<8[8:1],5,{8}2,1,{4}3/8,
{8}4-8[8:1],6-2[8:1],4>7b[4:1],6,{2}4,
{8}5h[8:1],3h[8:1],{16}6,4h[16:3],,,7-5[8:1],,,5,,,{8}4,
4h[8:1],6h[8:1],{16}3,5h[16:3],,,2-4[8:1],,,4,,,{8}5,
6h[8:1],4h[8:1],{16}7,3h[16:3],,,8-4[8:1],,,2,,,{8}3,
3h[8:1],5h[8:1],{16}2,6h[16:3],,,1-5[8:1],,,7,,,{8}6,
7b-4[8:1],4<7[8:1],{4}7>1[8:1]/3p1[8:3],3,C,
{8}2-5[8:1],5>2[8:1],{4}2<8[8:1]/6q8[8:3],6,C,
{8}2b>5[8:1],8-4[8:1],2,8,1b-5[8:1],7<4[8:1],1,7,
{2}Ch[2:1],7-3b[8:1],
{8}2bxh[4:1],1,8h[4:1],3,{4}4h[4:1],{8}7h[8:1],5h[8:1],
6-3[8:1],3<6[8:1],{4}6<8[8:1]*qq2[8:3],,E8/B7/B8,
{8}7xh[4:1],8,1h[4:1],6,{4}5h[4:1],{8}2h[8:1],4h[8:1],
3p5[4:1],2,3/5qq1[8:3],6,{4}7,E8/B7/B8,
{8}7bxh[4:1],8,1h[4:1],6,{4}5h[4:1],{8}2h[8:1],4h[8:1],
3-6[8:1],6>3[8:1],{4}3>1[8:1]*pp7[8:3],,E2/B2/B1,
{8}2xh[4:1],1,8h[4:1],3,{4}4h[4:1],{8}7h[8:1],5h[8:1],
6-2[8:1],7,6/4-1[8:1]*pp8[8:3],3,{2}4,
{8}2b-6[8:1],8-5[8:1],2>5[8:1],8,{4}2,{8}6-4[8:1],4-8[8:1],
{4}6,{8}2-6[8:1],7,{4}2<7[8:1]*>5[8:1],2,
{8}6-2[8:1],4-1[8:1],6<1[8:1],4,{4}6,{8}2-8[8:1],8-4[8:1],
{4}2,{8}6-2[8:1],3,{4}6>3[8:1]*<1[8:1],6,
{8}7bx-3[8:1],1-4[8:1],7<4[8:1],1,{4}7,{8}3-5[8:1],5-1[8:1],
{4}3,{8}7-3[8:1],2,{4}7>2[8:1]*<4[8:1],7,
{8}3b-7[8:1],5-8[8:1],3>8[8:1],5,{4}3,{8}7h[8:1],8h[8:1],
6xh[8:1],{16}4,5,{8}3,2xh[8:1],{16}4-8b[8:1],3,{8}5,{32},B4,C,B8,,,,,{4}6bx/E1,
{8}6,E2,{4}6,6/E3,
{8}7,E4,{4}7,{2}7h[4:1]/E5,
{4}3x/E1,{8}3,E8,{4}3,3/E7,
{8}2,E6,{4}2,2/E5,2/C,
7x/E5,{8}7/E4,E3,{4}7,7,
6,6/E2,6h[4:1]/E1,C,
2x/E5,{8}2,E6,{4}2/E7,2,
3/E8,{8}3,E1,{4}3,3/C,
5b/4xh[4:1],{8}6,5h[8:1],{4}7,8/4h[4:1],
{8}1,3h[8:1],{4}2,4/3,5/4,
4/5xh[4:1],{8}3,4h[8:1],{4}2,1/5h[4:1],
{8}8,6h[8:1],{4}7,5/6,4/5,
{8}3bh[8:1],4,2h[8:1],5,1h[8:1],6,8h[8:1],7,
6h[8:1],5,7h[8:1],4,8h[8:1],3,1h[8:1],2,
{16}8b,7,6,5,2,3,4,5,7,6,5,4,1,2,3,4,
{2}5qq1[8:3],7-3b[8:1],
{1}Cf/B1/B2/B3/B4/B5/B8/B7/B6,
{4},,,,,,,,,,,,E1,
E2,E3,E4,
E5,E6,E7,E8,
D1,D2,D3,D4,
D5,D6,D7,D8/C,
1b>4[8:1],1,{8}6,5,{4}7/4,
8<5[8:1],8,{8}3,4,{4}2/5,
{8}3-7[8:1],7-3[8:1],{4}3,5w1[8:1],5,
{8}6-2[8:1],2-6[8:1],{4}6,4-8[8:1],4,
{16}6b,5,{8}7h[8:1],{16}5,6,{8}4h[8:1],{16}7,5,{8}8h[8:1],{16}4,6,4,5,
3b,4,{8}2h[8:1],{16}4,3,{8}5h[8:1],{16}2,4,{8}1h[8:1],{16}5,3,5,4,
6b,5,6,4,6,3,6,2,6b,2,7,2,8,2,1,2,
8b,7,6,5,4,3,2,1,{4}8bxw4b[8:1],8bx,
{8}2b-4[8:1],1-5[16:1],{16}2,1,,,3,6h[8:1],,2,{8}6h[8:1],1,
7-5[8:1],8-4[16:1],{16}7,8,,,6,3h[8:1],,7,{8}3h[8:1],8,
2-6[8:1],1-5[16:1],{16}2,1,,,4,7h[8:1],,3,{8}6h[8:1],2,
7-3[8:1],8-4[16:1],{16}7,8,,,5,2h[8:1],,6,{8}3h[8:1],{16}7,7,
{8}2b-6[8:1],8<5[16:1],{16}2,8,,,3,4h[8:1],,2,{8}5h[8:1],1,
7-3[8:1],1>4[16:1],{16}7,1,,,6,5h[8:1],,7,{8}4h[8:1],8,
3>8[8:1],7v4[16:1],{16}3,7,,,2,5h[8:1],,3,{8}6h[8:1],4,
6<1[8:1],2v5[16:1],{16}6,2,,,7,4h[8:1],,6,{8}3h[8:1],{16}5,5,
{8}3b-1[8:1],4-8[16:1],{16}3,4,,,2,2h[8:1],,6,{8}6h[8:1],4,
6-8[8:1],5-1[16:1],{16}6,5,,,7,7h[8:1],,3,{8}3h[8:1],5,
3-7[8:1],4-8[16:1],{16}3,4,,,1,1h[8:1],,7,{8}7h[8:1],3,
6-2[8:1],5-1[16:1],{16}6,5,,,8,8h[8:1],,2,{8}2h[8:1],{16}6,6,
{8}3b-7[8:1],5<8[16:1],{16}3,5,,,2,1,3,8,4,7,{8}5,
6b-2[8:1],4>1[16:1],{16}6,4,,,7,8,6,1,5,2,{8}4,
2b>5b[8:1],1v6b[8:1],2,1,8bxv3b[8:1],7<4b[8:1],8,7,
{16}1b,2,3,4x,8,7,6,5x,{4}A2/B2/A3/D3/B3/E3,A7/B7/D7/B6/A6/E7,
{8}8b/1b,{16}3,4,{8}2h[8:1],5h[8:1],1-5[8:1],6,1,7,
8/4,{16}6,5,{8}7h[8:1],4h[8:1],8-4[8:1],3,8,2,
1/5,{16}3,4,{8}2h[8:1],5h[8:1],1>4[8:1],6,1,7,
8/5,{16}6,5,{8}7h[8:1],4h[8:1],8<5[8:1],3,8,2,
4/1,{16}3,4,{8}2h[8:1],{16}5,4,{8}6-2[8:1],5>2[8:1],6,5,
8,{16}6,5,{8}7h[8:1],{16}4,5,{8}3-7[8:1],4<7[8:1],3,4,
{32}1x-5[8:1]*-7[8:1],D2,A2,D3,{8}6x/A3,{32},,,,,,,,8x-4[8:1]*-2[8:1],D8,A7,D7,{8}3x/A6,,,1-5[8:1]/5-1[8:1],
1/5-7[8:1],,,3w7b[8:1],3,{4}3b,
{16}3bx,4,3,5,4,5,3,4,2,5,4,6,1,2,3,4,
6b,5,6,4,5,4,6,5,7,4,5,3,8,7,6,5,
3b,4,2,6,5,7,3,1,2,6,8,7,1,2,3,4,
6b,5,7,3,4,2,6,8,7,3,1,2,8,7,6,5,
3b,4,3,4,2,5,2,5,1b,2,3,4,8,7,6,5,
2b,1,2,1,3,8,3,8,2b,3,4,5,8,7,6,5,
2b,4,2,4,1b,6,1,6,5b,7,5,7,3b,5,3,5,
4b,6,3b,6,2b,6,1b,6,8b,7,6,5,4/8-4b[8:1],3/7,2/6,1/5,
4/8,Cf,
E
