&title=Wind Again
&artist=Srav3R
&first=0
&des_5=我是区。
&lv_5=14
&des=我是区。
&inote_5=(175)
{1},
{1},
{8}8bs4z8[8:26]/2h[8:16],,,,,,,,
{1},,,
{8}6pp4[8:26],,,,,1,,2qq4[8:19],
{8},,,,,,,,
{8},,,,,,,,
{8},,,,,,,,
{8}7h[8:3],,,5,5h[8:4],,4,,
{8}4h[8:3],,,2,2qq7[8:4],,,,
{16}6h[8:4],,,,,,B8,,B1,,,,E6,B5,B4,E4,
{8},E7,,E3,,E1,C,E5,
{8},B7/E8,,E2/B2,,5p4[8:4],,C,
{8},,,2,2h[8:6],,A5,A6,
{8}A7,,,B3,B4,B5,B6,Ch[8:5],
{16},,,,8,,,,7x,,,6x,,,5x,,
{8}3h[8:10],,5,,4,,4,,
{8}5,,5,,3,4,5,,
{8}6h[8:10]/4,,4,,5,,5,,
{8}4,,4,,6,5,4,3,
{8}8<3[8:4],,3,,2,,2,,
{8}1-4[8:2],,6,,8-5[8:2],,3,2,
{16}1,,,,1,,1,,4,2,5,3,6,4,7,5,
{16}8b,,,,,,,,4,5,4,,3pp2[8:4]/6,,,,
{8}3/A6f,,,,7pp4[8:5],,7/B3f,,
{8},,,,1,2,3qq5[8:4],4,
{8}3/B5f,,,,6pp1[8:5],,6/E4f,,
{8},,,,3h[8:2],,4qq5[8:4],,
{8}4/E6f,,,,7qq2[8:5],,7/E3f,,
{8},,,,4h[8:2],,8qq5[8:6],,
{8}8/B2f,,,,2,,1s5[8:6],,
{8}7h[8:6],,,,,,,,
{16}25,,3,,46,,,,3h[8:1],,5,,3h[8:1],,6,,
{8}4p2[8:4],,4<7[8:2],,,,,,
{16}74,,6,,53,,,,6h[8:1],,4,,6h[8:1],,3,,
{8}5q8[8:4],,5>2[8:2],,,,,,
{8}16,1,14,1,12,1,18,1,
{8}61,6,63,6,65,6,67,6,
{16}8,7,1,6,2,5,3,4,2,1,3,8,4,7,5,6,
{8}5<4[8:4],,,,,,8b,,
{24}62,,,3,,,7<4[8:1]/4,,,8,,,4q8[8:1],3,2,1V35[8:2],,,,,,1x,,,
{16},,7-1[8:1],,6x,5x,7x,,4,3,2,1,E5,B5,B6,E7,
{16}1,,2-5[8:1],,,,2/6,,8h[8:2],,,,,,3b/7b,,
{16},,2,4,3,,6,5,7,,1/8,,2b/7b,,,,
{16}2h[8:1],,7,7,2h[8:1],,6,6,2xh[8:1],,5pp1[16:7],,2xh[8:3],,A5f,,
{16},,,,,,,,E4,B3,B2,E2,E6,B6,B7,E8,
{8}2V48[8:2],,7/2,5,7-3[8:1],7,2-6[8:1],2,
{16}5s1[8:4],,,,,,,,2b,,,2b,,,2b,,
{24}37,,,6,,,2>5[8:1]/5,,,1,,,5p1[8:1],6,7,8V64[8:2],,,,,,8x,,,
{16},,2-8[8:1],,3x,4x,2x,,5,6,7,8,E5,B4,B3,E3,
{32}8-4[8:1],,,,,,,,8/2,,,,1,,,,1,2,3,4,5,6,7,8,1b/5b,,,,3b/7b,,,,
{8},56,34,47,2-4[8:1]/5,,25,,
{16}7h[8:1],,2,2,7h[8:1],,3,3,7xh[8:1],,4qq8[16:7],,7xh[8:3],,A4f,,
{16},,,,,,,,E6,B6,B7,E8,E4,B3,B2,E2,
{8}8-4[8:1],,3,2,2/5,1,6/2,7,
{8}8z4[8:4],,,,,,Cf,,
{8}6/8-4[8:1],17,28,,2/5,3,7-2[8:1]/4-2[8:1],6,
{16}7-5[8:1]/4-8[8:1],,,,7>5[8:2],,,,B1/B2/E2/7,,,,,,1,2,
{8}3/6V84[8:2],7,6/4-6[8:1],,B2/B3/E3,,1-4[8:1],2,
{8}7-4V61[8:3]/1,,7/2-5[8:1],3,2,,Cf,,
{8}3/8-5[8:1],7,38,,2,3,4-7[8:1]/6,5,
{16}3/4-1[8:1],,,,4>6[8:2]/6,,,,4/E2/E1/B1,,,,,,2,3,
{8}4V26[8:2]/5,7,6-3[8:1]/4,,E7/B7/B8,,7x,2x,
{8}8b/1b,,1b/8b,,6-8[8:1]/2b,3,E5f/B4/B5,,
{8}3/1-5[8:1],82,71,,7/4,6,2-7[8:1]/5-7[8:1],3,
{16}2-4[8:1]/5-1[8:1],,,,2<4[8:2],,,,B8/B7/E8/2,,,,,,8,7,
{8}6/3V15[8:2],2,3/5-3[8:1],,A8/E8/D8,,7,6,
{8}2-5V38[8:3]/5h[8:1],,2/6,7,8b-6[8:1]*-4[8:1],,,,
{8}7x/5x,6,5x/2x,3,7x/4x,6,4x/2x,3,
{16}8-6[16:2]*-5[16:2],,,,8-2[16:2]*-3[16:2],,,,8,,,,,,7,3,
{8}1/2,8,7/5-8[8:1],,3h[8:1]/5b,,2x/6x,1,
{8}78,,7qq4[8:3]/8q3[8:3],,,,,,
{8}1bz5s1[8:26]/5xbh[8:28],,,,,,,,
{1},,,
{8}3qq5[8:26],,,,,8,,7pp5[8:19],
{8},,,,,,,,
{8},,,,,,,,
{8},,,,,,,,
{8}7V53<1[8:12],,,,B3/E3/A3,,,,
{8},,,,B2/A2,,,,
{8}3>6V82-4[8:12],,,,A6/E6/B6,,,,
{8},,,,B6/E6/B5,,,,
{8}7pp4<8[8:12],,,,E1/B8/B1,,,,
{8},,,,B4/E4/B3,,,,
{8}2>6>8[8:12],,,,,,,,
{8}B5,,B6,,B7,,,,
{8}7h[8:1],,7h[8:1],,7h[8:1],,7h[8:1],,
{8}7h[8:1]/8,,7h[8:1]/8,,7h[8:1]/1,,7h[8:1]/1,,
{8}6h[8:1]/2,,6h[8:1]/B8/B1,,6h[8:1]/3,,6h[8:1]/B5/B4,,
{8}7x/E6,,7x/B8,,7x/B4,,7x/E3,,
{8}2h[8:1],,2xh[8:1],,2h[8:1],,2xh[8:1],,
{8}2h[8:1]/1,,2xh[8:1]/1x,,2h[8:1]/8,,2xh[8:1]/8x,,
{8}3h[8:1]/7,,3xh[8:1]/B1/B8,,3h[8:1]/6,,3xh[8:1]/B4/B5,,
{8}2x/A1,,2x/A8,,2x/A7,,3x/A6,,
{4}5h[8:1]/3x-7[8:1],5h[8:1],5h[8:1]/7x-2[8:1],5h[8:1],5h[8:1]/2x-6[8:1],5h[8:1],5h[8:1]/6x-1[8:1],5h[8:1],
{4}5h[8:1]/1x-4[8:1],5h[8:1],6h[8:1]/4x-8[8:1],6h[8:1],5x/7x,2x/4x,Ch[4:1],,
{4}4h[8:1]/6x-2[8:1],4h[8:1],4h[8:1]/2x-7[8:1],4h[8:1],4h[8:1]/7x-3[8:1],4h[8:1],4h[8:1]/3x-8[8:1],4h[8:1],
{4}4h[8:1]/8x-5[8:1],4h[8:1],3h[8:1]/5x-1[8:1],3h[8:1],
{8}E2/B5,,E8/B4,,E7,E3,Chf[8:2],,
{8}1>8z4b[8:24],,,,,,,,
{1},,,
{8}7h[1:1],,,,,,,,
{8}5h[1:1],,,,,,,,
{8}4h[4:7],,,,,,,,
{8}2-7[8:1],,,,6-3[8:1],,,,
{8}2/5,3,4/6,,7h[8:2],5,3h[8:1],5,
{8}7p6[8:4],,7/4>1[8:2],,,,,,
{8}7/4,6,5/3,,2h[8:2],4,6h[8:1],4,
{8}2q3[8:4],,5<8[8:2]/2,,,,,,
{8}12,12,38,38,47,47,56,56,
{8}78,78,16,16,2-6[8:1]/4,35,2/4,,
{16}5x,7x,5x,7x,6x,8x,6x,8x,7,1,7,1,8,2,8,2,
{8}1>8[8:4],,,,,,4b,,
{24}61,,,2,,,7<4[8:1]/3,,,48,,,3-6[8:1]/7,2,1,8V25[8:2],,,,,,8,,,
{16},,7-1[8:1],,6x,5x,7x,,4,3,2,1,E5,B5,B6,E7,
{16}1,,2-5-1[8:2],,,,2/8,,7h[8:2],,,,,,1b/5b,,
{16},,2,5,3h[16:1],,6,4,7h[16:1],,1/8,,2b/6b,,,,
{8}3,7>1[8:1],3,7<5[8:1],3-8[8:1],7qq2b[16:7],3,A7f,
{16},,3xh[8:1],,,,,,E4,B3,B2,E2,E6,B6,B7,E8,
{8}2V48[8:2],,7/2,5,7-3[8:1],7,2-6[8:1],2,
{16}5pp1b[8:4],,,,,,,,2b,,,2b,,,2b,,
{24}38,,,7,,,2>5[8:1]/6,,,51,,,6-3[8:1]/2,7,8,1V74[8:2],,,,,,1,,,
{16},,2-8[8:1],,3x,4x,2x,,5,6,7,8,E5,B4,B3,E3,
{32}8-4[8:1],,,,,,,,8/2,,,,1,,,,1,2,3,4,5,6,7,8,1b/5b,,,,3b/7b,,,,
{8},56,34,47,2V48[8:2]/5,,25,,
{8}6,2<8[8:1],6,2>4[8:1],6-1[8:1],2pp7b[16:7],6,A2f,
{16},,6xh[8:1],,,,,,E6,B6,B7,E8,E4,B3,B2,E2,
{8}8-4[8:1],,3,2,3/5,6,7/2,1,
{8}8z4b[8:4]/7,,,,,,Cf,,
{8}1-5[8:1]/3,28,71,,48,7,2-8[8:1]/6-4[8:1],3,
{16}2v5[8:1]/6-1[8:1],,,,2<4b[8:2]/6,,,,Cf,,,,,,1,2,
{8}3/6V85b[8:2],7,6/5-2[8:1],,A4/D4/A3,,1-4[8:1]/3,28,
{8}7-4V61b[8:3]/1,,7/2-5[8:1],3,2,,Cf,,
{8}4/8-5[8:1],57,48,,24,3,4-7[8:1]/6,5,
{16}3/4-1[8:1],,,,4>6b[8:2]/6,,,,4/E2/E1/B1,,,,,,2,3,
{8}4V26b[8:2]/5,7,6-1[8:1]/4,,A7/A8/D8,,5,4,
{8}2b/8b,,7b/1b,,3b-1[8:1]/8b,6,E5f/B5/B4,,
{8}8-4[8:1]/6,71,28,,51,2,7-1[8:1]/3-5[8:1],6,
{16}7v4[8:1]/3-8[8:1],,,,7>5b[8:2]/3,,,,Cf,,,,,,8,7,
{8}6/3V14b[8:2],2,3/4-8[8:1],,A5/D6/A6,,2<7[8:1],6,
{8}2b-5V38b[8:3]/5h[8:1],,2b/6,7,8bw4[8:1],,,,
{8}7x/5x,6,5x/2x,3,7x/4x,6,4x/2x,3,
{16}8>3[16:3]*-3[16:3],,,,8<5[16:3]*-5[16:3],,,,8,,,,,,2,6,
{8}8/7,1,2/4-1b[8:1],,6h[8:1]/4b,,7x/3x,8,
{8}21,,2pp5[8:3]/1p6[8:3],,,,,,
{8}1b/8b,,,,,,,,
{1},,
