&title=流星
&artist=藍井エイル /《刀剑神域 Alternative GGO》OP
&first=-0.205
&des=ヒトカケラの勇気
&wholebpm=143.000
&lv_5=13
&des_5=
&inote_5=(143)
{16},,,,
,,,,
,,,,
,,,,
{16}4,6,3,5,
1hb[16:3],,,4h[16:3],
,,8>3[8:1],,
8,,,,
{16}7,,6,5,
7hb[16:3],,,8h[16:3],
,,1-5[8:1],,
1,,,,
{16}2,,4,6,
5>2[8:1],,,,
B7/B8/E8,,,,
5<8[8:1],,,,
{16}B2/B3/E3,,,,
5x,4x,3x,2x,
1hx[8:1],,5hx[8:1],,
7x,6x,5x,4x,
{16}3x,,6,4,
8hb[16:3],,,5h[16:3],
,,1<6[8:1],,
1,,,,
{16}2,,3,4,
1hb[16:3],,,8h[16:3],
,,7-3[8:1],,
7,,,,
{16}6,,8,2,
1pp6[3:1],,,,
3,,,,
5,,,,
{16}78,,,,
2b,1,3,7b,
5,6,3b,4,
3,6b,5,6,
{16}4h[4:1],,,,
{4}1<6[3:2],,,,
2-5[3:2],,,,
{16}6>3[3:2],,,,
,,,,
,,,,
,,,,
{4}1p4[3:2],,,,
5q7[4:3],,,,
2v3-5[4:3],,,,
8qq8[4:3],,,,
{16}2h,,,3h,
,,4h,,
6x,5x,4x,3x,
2x,1x,8x,7x,
{16}6x>3[8:1]/2x,,,,
2,,,,
4-8[8:1]/2,,,,
2,,,,
{16}4h[4:1],,,,
5-2[8:1],,,,
7-4[8:1],,,,
1,,,,
{16}2<7[8:1]/5,,,,
5,,,,
8-4[8:1]/5,,,,
5,,,,
{16}6h[16:3],,,5,
6,,47,,
3h[16:3],,,4,
3,,25,,
{16}1>4[8:1]/6,,,,
5,,,,
7-4[8:1]/5,,,,
8,,,,
{16}2h[16:3],,,1,
2<7[8:1],,3,,
4h[16:3],,,5,
4z8[4:1],,3,,
{16}2,,2,,
2,,2,,
8,,8,,
8,,8,,
{16}57,,6,,34
,,2,1,
3,,27,,
3,6,4,7,
{16}5>2[8:1],,,1,
,,7,,
5/6>3[8:1],,,,
2h[4:1],,,,
{16}1-5[8:1],,,8,
,,6,,
7h[16:3]/8h[16:3],,,,
6,1,5,2,
{16}4<7[8:1],,,8,
,,2,,
4/3<6[8:1],,,,
7h[4:1],,,,
{16}8-4[8:1],,,1,
,,3,,
1x/2x,3x,4x,5x,
6x,7x,8x,1x,
{16}2x/6x,,7,8,6
,,25,,
3,4,,4,
3,,25,,
{16}37,,2,1,3
,,7,5,
6,,2,4,
3,5,1,,
{16}78,78,,,
,,35,35,
,,,,
1/2p5b[16:5],1<6[4:1]/2,,,
{16},,,,
,,,,
3x,4x,5x,6x,
7x,8x,1x,2x,
{16}3x/7x<4[8:1],,,5,
7,,8,,
17,,6,5,
6,,8,,
{16}2/4-8[8:1],,,3,
4,,5,,
57,,3,,
34,,1,,
{16}1<5[4:1],,,,
5>1[4:1],,,,
1<5[4:1],,,,
5,,,,
{16}1,,2,4,
3,,6,5,
7,4,6,4,
5,3,4,3,
{16}1-4[8:1],,,,
12,,2-6[8:1],,
,,2/4pp7[3:1],,
,,34,,
{16}3,,,,
1,,1>4[8:1]*<6[8:1],,
,,1-5[8:1],,
,,2,,
{16}2<4[3:1],,,,
6,,6h[4:1],,
,,{24}3x,2x,1x,8x,7x,6x,5x,4x,3x,
{16}2hx[8:1]/8hx[8:1],,,5h[8:1]/7h[8:1],
,,16,,
2h[8:1]/4h[8:1],,,5h[8:1]/7h[8:1],
,,18,,
{16}6x/2x>5[8:1],,,4,
2,,8,,
17,,2,4,
2,,18,,
{16}6/3-8[8:1],,,5,
3,,4,,
41,,7,,
75,,6,,
{16}2b-6[8:1],,5,,
7,,1b-5[8:1],,
4,,2,,
8b-4[8:1],,4,,
{16}6-1[8:1],,6,,
5>2[8:1],,5,,
7x,6x,5x,4x,
3x,2x,1x,8x,
{16}7x-3[8:1]/2x,,,,
67,,6-1[8:1],,
,,6/4-1[8:1]*-7[8:1],,
,,4,,
{16},,2-6[8:1]/6,,
,,2/8<5[8:1]*>3[8:1],,
,,8,,
,,26,,
{16}2/6h[4:1],,,,
7<3[6:1],,1,,
1h[4:1],,{24},,,2x,1x,8x,7x,6x,5x,
{16}4hx[8:1]/2hx[8:1],,,7h[8:1]/1h[8:1],
,,38,,
5h[8:1]/7h[8:1],,,2h[8:1]/4h[8:1],
,,18,,
{16}37,,6,5,
7,,3,4,
2,,7,8,
16,,34,,
{16},,57,,
12,,45,,
7-5b[8:1]/8,,3-7b[8:1]/5,,
7b,,3b>4[8:15],,
{16},,,,
,,,,
,,,,
,,,,
{16},,,,
,,,,
,,,,
,,,,
{16},,,,
,,,,
