&title=GaLaXyEggPlanT
&artist=sasakure.UK
&first=0
&des=Youters
&lv_5=14+
&inote_5=(240){1},
{8}8qq1[4:6]/2h[4:6],,,,,,,,,,,,,,2,,
{8}1pp4[4:6]/7h[4:6],,,,,,,,,,,,,,7,,
{8}6qq6[4:6]/3,,,3,,,3,,,3,,,3,,3,,
{8}2qq4[4:6]/6,,,6,,,6,,,6,,,6,,6,,
{8}7V51[4:2],,2-4[4:1],,,,,,8V27[4:2],,5-1[4:1],,,,,,
{8}2V48[4:2],,7-5[4:1],,,,,,1V72[4:2],,4-8[4:1],,,,,,
{4}3-7[4:1],7V15[4:2],6h[4:1],,8v2[4:1],2>7[4:2],1h[4:1],,8-4[4:1],4^1[4:1],6h[4:1],,
{2}8/7h[4:3],1-5[8:1],
{4}6b-8[8:1],56,5-1[8:1],45,4-2[8:1],41,8-4[8:1],18,
{4}2-4[8:1],12,1-5[8:1],81,{8}7V51[8:1],7,,,4^2[8:1],4,8,,
{4}7-5[8:1],87,8-4[8:1],18,1-3[8:1],14,5-1[8:1],45,
{4}3-1[8:1],43,5-7[8:1],45,{16}2,1,2,1,2h[8:1],,,,8,1,8,1,27,,,,
{16}2/7b,6,5,4,3,2,1,8,74,6,5,4,3,2,1,8,73,4,5,6,7,8,1,2,36,4,5,6,7,8,1,2,38,7,6,5,4,3,2,1,84,7,6,5,4,3,2,1,{8}8/4-8[8:1],4,,,7-1[12:1]*-5[12:1],7,,,
{16}7/2b,3,4,5,6,7,8,1,25,3,4,5,6,7,8,1,26,5,4,3,2,1,8,7,63,5,4,3,2,1,8,7,61,2,3,4,5,6,7,8,15,2,3,4,5,6,7,8,{8}15,5,26,6,37,7,4h[8:1]/8h[8:1],,
{8}7h[8:2]/5h[8:2],,,1h[8:2]/8h[8:2],,,2h[8:2]/4h[8:2],,,1h[8:2]/8h[8:2],,,2-5[8:1]/7-4[8:1],27,,,
{8},,8V62[8:3],,1,2-5[4:1],,3,,4,,4v3[8:1],,6,,,
{8}7,5,6,3,5,4,6,6,2,4,3,6,4,5,3,3-8[8:1]/4,
{8},,7,,6,5,4,3,7,6,4,3,7,6,3,2,
{8}8h[8:2]/1h[8:2],,,7h[8:2]/5h[8:2],,,8h[8:2]/1h[8:2],,,2h[8:2]/4h[8:2],,,8-4[8:1]/1-5[8:1],18,,,
{8},,1V37[8:3],,8,7-4[4:1],,6,,5,,5v6[8:1],,3,,,
{16}18,,,,2,3,4-8[8:1]/7,,,,8,7,6,5,4-8[8:1],,,,1,2,3,4,5-1[8:1],,,,,,7,,,,
{16}81,,,,7,6,5-1[8:1]/2,,,,1,2,3,4,5-1[8:1],,,,8,7,6,5,4-8[8:1],,,,,,2b,,,,
{16}1b/8b,,,,2,3,4/7b,,,,8,7,6,5,4/2b,,,,1/3,24,35,46,5b-1[8:1]/7b,,,,,,7<8[4:10],,,,
{4}7b,,,,6h[2:1],,,,5h[2:1],,,,4h[2:1],,,,3,3,3,3,{8}2,2,2,2,2,2,2,2,{16}1-5[8:7],8,1,8,1,8,1,8,1,8,1,8,1-5[8:1]*-5[8:1],8,1,8,{1}1b/7h[4:3],
{8}18,7,2-5[8:1],5-1[8:1],2,,6,7,8,2,7-4[8:1],4-8[8:1],7,,1,2,3-1[8:1],4,3,5^7[8:1],4,5,1,1h[8:1],,{16}7,8,{8}7,16,2,12,38,,
{16}4,3,2,1,87,6,5,4,1,2,3,4,56,7,8,1,4,3,2,1,7,6,5,4,8,7,6,5,1,8,7,6,
{8}52,2,4-7[8:1],4,,1,2,3,48,48,48,3-8[8:1]/7-4[8:1],37,37,,,
{8}1-5[8:1]/5,,1,8b-6[8:1],,8b/2-4[8:1],,2b/1h[8:1],,,
{16}5,6,5,6,4,5,4,5,3,4,3,4,
{8}3^1[8:1],4,3,7-5[8:1],8,7,4,4h[8:1],,{16}6,5,{8}6,47,3,43,25,,
{16}5,6,7,8,12,3,4,5,8,7,6,5,43,2,1,8,5,6,7,8,2,3,4,5,1,2,3,4,8,1,2,3,
{8}7-4[8:1],7,1-5[8:1],1,8-6[8:1],8,4-2[8:1],4,5,5,6,6,27,27,18,18,
{8}2b/7,,25,,28,,24,2,72,,73,,71,,7/4^1[8:1],7,{4}8^5[8:1],4^1[8:1],8^5[8:1],{8}4,,1h[16:1],1,28,28,3h[16:1]/7h[16:1],37,4/6h[8:1],,
{16}5,6,5,6,4,7,4,7,3,8,3,8,2,1,2,1,3,4,3,4,2,5,2,5,1,6,1,6,8,7,8,7,
{8}1^4[8:1],1,5,5h[8:1],,6,7,8,{16}2,1,2,,38,,38,,2,1,2,1,3/8h[8:1],,,,
{8}7b/2,,74,,71,,75,7,27,,26,,28,,2/6,2,{4}2-5[8:1]/6,2/6-1[8:1],2-5[8:1]/6,{8}2,,8h[16:1],8,71,71,6h[16:1]/2h[16:1],62,5/3h[8:1],,
{8}4,4,78,78,75,75,64,64,35,35,82,82,18,17,16,15,{16}15,2,3,4,5,6,7,8,51,4,3,2,1,8,7,6,{32}25,3,4,5,6,7,8,1,2,3,4,5,6,7,8,1,26,5,4,3,2,1,8,7,6,5,4,3,2,1,8,7,
{1}6qq1[4:10]*q1[4:10],,,
{2}8/2h[4:3],8-4[8:1],
{4}3-1[8:1],43,4-8[8:1],54,5-7[8:1],58,1-5[8:1],81,
{4}7-5[8:1],87,8-4[8:1],18,{8}2V48[8:1],2,,,5^7[8:1],5,1,,
{4}2-4[8:1],12,1-5[8:1],81,8-6[8:1],85,4-8[8:1],54,
{4}6-8[8:1],56,4-2[8:1],54,{16}7,8,7,8,7h[8:1],,,,1,8,1,8,7b/2b,,,,
{16}1,2,3,4,6,7,8,1,5h[16:1],,5h[16:1],,7h[16:1]/6h[16:1],,7h[16:1]/6h[16:1],,8-5[8:1],,5-7[8:1],,8,,4,,4,3,2,1,87,6,5,4,
{16}2,1,8,7,3,2,1,8,4h[16:1],,4h[16:1],,1h[16:1]/2h[16:1],,1h[16:1]/2h[16:1],,8-4[8:1],,4-7[8:1],,8,,1,,1,2,3,4,56,7,8,1,
{8}3,3,24,24,36,36,17,17,{16}28,,3,4,3,,18,,5,6,5,6,47,,38,,
{16}2,1,2,1,4,5,4,5,8,7,8,7,1,8,1,8,2,7,1,8,2,7,1,8,2,3,48,7,61,2,37,6,
{8}5^8[8:1],4,3,2^5[8:1],1,8,7-2[8:1],6,5,4-7[8:1],3,2,1^4[8:1],8,7,6^1[8:1],5,4,3-7[8:1],2,1,1-5[8:1],,1b,,,
