&title=lullaby of outlaws
&artist=庄司英德
&first=-1.490116E-08
&lv_5=13+
&des_5=kaminski
&inote_5=
(146){4},{8},,1xh[400:99]/5xh[400:99],,,3xh[4:1]/7xh[4:1],
,,{4}3b/7b,{8},5/6,1x,4/3x,
{4}8,{8}4b/6,4x,{4}2/4<1[4:1],4b,
{16}4>1[4:1],,,,,,,,,,,5h[16:3],{4}4,
{16}3h[4:1],7,,,{4}5bh[8:1],{8}4b,5xh[4:1],{16},4x,,4x,
,,,,{8}4,{16}2,3,,3,{8}4,{4}4,
8,4,{8}8bV64b[4:1],8/6-4-2[16:5],{4}4V28[8:3],
{16},,,,,,,1xh[8:1],,,{8}5,,4,
{16},,4,5,,4/Cfh[16:3],,4,,4,,,,,,,{4}5,
,,4,
{8}5,{16},,,,5,4,5,4,{24}5,4,{48},,{16}6,4,5,4,
5,3,5,4,7,4,5,4h,5,4,6,3,5,4,6,3,
5,4,6,3,{24}4x,5x,{6}6x/7xh[24:5],{96}6,,,5,,,{32}4,3,2,1,,,{16}7bh[8:1],,,6,
5,4,{8}5,{16}5,4,{8}5,{4}5,{8}4/5-1[4:1],6x,
{16}5/4x,,,,,2,3,4,5,6,{8}7bh,7/8,7,
{16}1-6[16:1],1-4[16:1],,,,,,,{4}5,5h[4:1],
{16},,,,5,4,3,2,{8}8x/1x-5[4:1],1x,{4}1x/5x-1[8:1],
{8},,8x>7[4:1],6/2,{2}8/4,
{16},,8,7,8,7,8,7,6,5,4,3,2,1,8,7,
{4}6/5,4V28[4:1]/8x<5[4:1],{2}4x/8x,
{16},8x/5x,7/4,3x/6x,5/2,1,8,7b,,5w1[16:5],,5,,,,,,,,,,3,
7,4,6x,5,,,,,,,,,,,6,
5,6,5,6,5,6,4,6,3,6,2x,
{4}6b,6bh[4:1],{12},,,5,7,4x,
6x,4x,3,5x,{24},{8}6x,{4}5h[8:1],{24}5bw1[16:7],2,{48},,,,,,,,{16}5,
,,,,,,,,,,5/4,6,7,1/8,2,
3,4,,,3,4,,,{8}4,{16},,,,3,6h[8:1],
{2}5,6h[8:3],
{12}5/7,6,5,4/6,5,4,{4}3/5,{8}1V35[4:1]/5V71[4:1],1/5,
{24}5p1[4:1]/1p5[4:1],,,,,,,,,,,,,,,,,,,A4/B4,,A5/B5,,A6/B6f,
,A8/B8,,B1/A1,,A2f/B2,,,,,,,{4}3b/7b,{8}7v4[4:1]/3v8[4:1],3/7,
{4}7>3[8:3]/3<7[8:3],,,5bx,
{2}Cfh[4:1],{32}8x,A8,,A7,,A6,,A5,8x/D5,D1,,D2,,D3,,D4,
{16}4bx,,,,,,,1h[4:1]/5h[4:1],,,,,,4/8,7/3,6/2,
1,8x,7,6,5,8x/4,,,{4}6b/2b,{8}1bx-7[8:1]*-3[8:1],1bx-6[8:1]*-4[8:1],
{4}1bx-5[8:1],{24},,,,,,,,,,,,2/4,3/5,{6}4/6,
{24},8,7,6,,,{4}5b/1b,{8},4,4,6/4,
{16}4x,7/4x,4x,4x,{32}5,6,7,8,1,2,3,4,5,6,{16}7,{8}8b/4b,{4}6b/2b,
{16},,,,4,5,6,7,8,1,2,8/4,,,,,6,
5,4,3,{8}2,2,{16}2,3,4,5,{8}6,6/5,
6/7,6/5,{16}6,5,4,3,2,1,2,3,4,5,6/1,5,
4,3,2,1,8,7,6,{32}5,4,{4}3b,{8}2b/4b,7x/5x,
1b/4b,6x/3x,8b/2b,6x/4x,{4}2b/8b,{16}4,4,4b,5,
,5,,5,,5,4,5,6,7,8,1,2,3,4,5/8,
4,3,2,1,8,7,6,5,4,3,2,7h[16:5]/8h[16:5],,,,,,7/6,
5/6,5/4,4/3,3/2,{8}2bx/1bx,{16},,,,,,,,5,
6,1,6,5,6,2,6,5,6,1,6,5,6,2,6,
5bx,6bx,5bx,6,5,6,5,6,5,4,3,2,1b,8b,7b,6b,
5bxh[4:1],4bxh[4:1],,,,,,4,5,6,7,8,{8}1,2,
3,4,{16}4,5,6,5,4,3,2,1,{8}8,{16}1,8,
,1,{8}7,{16}1,7,,8,7,6,5,4,3,2,{8}1,
{16}8,7,6,5,{8}4,{16}5x,5x,{4}5x,{16}5x,3,7,1,
5x,3,{8}7,{16}8x,1,2,3,4x,5,6,7,{24}8,1,2,3,4/8,1,
2,3,4,5bx,6x,7x,{32}8,1,2,3,4x,5,6,7,{4}8x-4b[2:3],8b,
,,,,,,,6x,
4,6x,4,{16}5,4,,5,
{8}4,{16}5,4,6,3,7,1,5,3,7,4,6,5h[16:1],,,,,,,,,,,{8}6h[16:1],
4h[8:1],,5,
{4}3,{16},,,,,,,,6,5,6,5,
{8}6h[16:1],3h[16:1],6h[16:1],4h[16:1],6h[16:1],5h[16:1],{16}6,5,6,5,
6,5,6,5,6,5,4,3,2,1x,A1,D1,A8,D8,A7,D7,
A6,D6,{8}4bx<8[16:11],{16},,,,,,,,,,,,,4,
4,4,{4}4<3[2:1],{2}4,
{8},4,5,4,{24},,4,5,,,,,,{8}5,
{16},,5,4,5,4,5,4,{2}5x-1[8:1],
{16}4x,2,3,5,7,6,,1,8,1,,4,{8}8b>5[4:3],8b,
{16},,,,,,,,,,,,,,4bx,5x,
6x,7,8,1,2>1[0.8178##1.6397],3<1[0.8178##1.4384],4,5,{2}6x,
{8},,,,,,,,1x/8-6[8:1],
8b/1-5[8:1],8-4[8:1],1-3[8:1],,,,,,,{4}4>1[2:1],
{24},,,,,,,,,,,,,,,8x,
7x,6,{4}4x/5h[4:1],{16},,,,,,,,5h[4:1],
,,,,5,4,3,2/6x,5,4,3x,{8}2x/6,3,
1-6[16:1],1x-5[8:1],1-4[8:1],1-3[8:1],{16},,,,,,,,5x,
6,{8}3,{16}3,2h,,,{2}1<5[2:1],
{16},,,,,,4x,3x,2,1h[16:3],,,,,,,8h[4:1]/4h[4:1],
,,,,1x/5,6/2x,3x/7,8/4x,1,2,3,4,5,{8}6,
{4}8-3[4:1]/4-7[4:1],8/4,{16},,,,5/7x,6,5,4/6x,
5,4,3/5x,4,3,2/4x,3,2,1,8,{8}7,6,5,
{16},4,,,{4}3,2,{16}1bpp5[0.8178##2.0548],5,{8}1,
{1},{4},{16}6,
6-2[16:3],
E
