&title=あの日、あの部屋で、あったこと
&artist=wotaku feat. SHIKI
&first=-0.03
&des=GR
&lv_5=14+
&inote_5=(328){4},,,,,,,,,,,,,,,,,,,,
1b-3-5-7[4:7]/5b,,,,,,,,
8-2-4-6[4:7],,,,,,,,
7-1-3-5[4:7],,,,,,,,
6^3[4:4],,,,1h[4:1],,1/5x,,
4/5h[4:2],4,4,4,46,6,6,6,2/6h[4:2],2,2,2,28,8,8,8,
{8}2,5,4,5,4,5,4,5,3,6,3,6,3,6,3,6,
{16}2,3,4,5,8,7,6,5,1,2,3,4,7,6,5,4,
1x,2x,3x,4x,5x,6x,7x,8x,1x,2x,3x,4x,5x,6x,7x,8x,
{8}1bx,,,,,,,,
4b,,3h[8:1]/5h[8:1],,7h[8:1]/8h[8:1],,3/5,,
1,4h[8:1],3,4h[8:1],1,4,,
5b/3b,,6h[8:1]/4h[8:1],,1h[8:1]/2h[8:1],,6/4,,
8,5h[8:1],6,5h[8:1],8,5,,
6b/4b,,3h[8:1]/4h[8:1],,1h[8:1]/2h[8:1],,6/4,,
2,4h[8:1],3,4h[8:1],5,4,,
3b/5b,,6h[8:1]/5h[8:1],,8h[8:1]/7h[8:1],,3/5,,
7,5h[8:1],6,5h[8:1],4,5,,
3h[8:2]/7h[8:2],,,37,,2,1/2,,8,,
3h[8:2]/7h[8:2],,,37,,6,5/6,,4,,
7hb[8:2],,5,6,,6,5,,2h[8:2],,4,3,,3,4,,7h[8:2],,5,6,,6,5,,7,,
1hb[8:2],,4,2,,2,3,,6h[8:2],,5,7,,7,6,,1h[8:2],,4,2,,2,3,,1,,
{6}2x/4x,5,6,57,4,3,
{8}2b/4h[8:2],,8,4,,4,3,,8,,
{8}7b/5h[8:2],,1,5,,5,6,,1,,
E6,,E5,,E4,,
65,,7h[8:1],5,6h[8:1],8,7h[8:1],5,6h[8:1],8,7h[8:1],5,6h[8:1],8,7h[8:1],5,6,,
18,,2h[8:1],4,3h[8:1],1,2h[8:1],4,3h[8:1],1,2h[8:1],4,3h[8:1],1,2h[8:1],4,3,,
4/5h[8:3],,1,2,6,5,2,3,7,6,3,4,8,7,26,3,74,6,25,3,
4bx/8bx,,,,E5,,,,
3h[8:3]/4,,,1,2,,8,,6h[8:3]/5,,,8,7,,1>7[4:2],,8bx,,,1,1,,2-6[4:1],,4bx,,,,,,
47,,8h[8:2],,{16}1,2,3,4,{8}56,,7,,
1h[8:2],,{16}7,6,5,4,{8}23,,1,,
6-8[8:1],,4-2[8:1],,5-7[8:1],,1s5[8:3],,C,,,,,,,,
4h[8:3]/5,,,2,3,,1,,8h[8:3]/1,,,6,7,,5<3[4:2],,7bx,,,5,5,,4-8[4:1],,1bx,,,,,,
46,,3h[8:2],,{16}2,1,8,7,{8}46,,2,,
7h[8:2],,{16}8,1,2,3,{8}46,,5,,
2-4[8:1],,7-5[8:1],,1-3[8:1],,4x,,
6,5,6,5,7,8,7,8,
1b-3-8-4b[4:5]/6b,,,,,,,,,,,,,,
7-5-8-4b[4:5],,,,,,,,,,,,,,
3-1-4-8b[4:5],,,,,,,,,,,,,,
6b,,,,3b/4b,,,,
8b/2b,,3,3,,4,4,,25,,6,6,,4,4,5,2,,1,1,,8,8,,2,,
1b/7b,,6,6,,5,5,,74,,3,3,,5,5,4,7,,8,8,,1,1,,8-5^4[8:5]*^1-4[8:5],,,,,,,,,,
1b/5b,,4,34,,2,23,,6,,8b/4b,,5,65,,7,76,,3,,E2,,E1,,E8,,
6b/5b,,7,5,7,4,7,5,7,6,7,7,7,7,7,7,7,,
6b/1b,,2,4,2,5,2,4,2,3,2,2,2,2,2,2,2,,
8b/3b,,4,5,3,5,2,5,1,5,8,5,7,5,6,5,4,53,26,17,
8b,,,,C,,,,
2x/4x,,2x/4x,,4hx[16:3]/2hx[16:6],,,,
2x/4x,,2x/4x,,4hx[16:3]/2hx[16:6],,,,
2x/4x,,2x/4x,,4hx[16:3]/2hx[16:6],,,,
2x/4x,,2x/4x,,4hx[16:3]/2hx[16:6],,,,
3x/5x,,3x/5x,,5hx[16:3]/3hx[16:6],,,,
4x/6x,,4x/6x,,6hx[16:3]/4hx[16:6],,,,
5x/7x,,5x/7x,,7hx[16:6]/5hx[16:3],,,,,,,,,,,,
2b-5[8:1]/8b,,6x-1[8:1],,3x-8[8:1],,7x-4[8:1],,
1x-4[8:1],,5x-8[8:1],,2x-7[8:1],,6x-3[8:1],,
8x-3[8:1],,4x-7[8:1],,2x-5[8:1],,6x-1[8:1],,
3x,,5x,,7x,,1x/8x,,
2h[4:1],,4,34,,45,45,,6h[4:1],,8,78,,81,81,,
6,,57,,12,,34,,7,8,6,1,7,8,6,,
5/4h[8:1],,4h[8:1],,4h[8:1],,4h[8:1],,
4/5h[8:1],,5h[8:1],3,5h[8:1],,5h[8:1]/2,,
4/3h[8:1],,3h[8:1],,3h[8:1]/4,,3h[8:1]/5,,
5/6h[8:1],,6h[8:1],,6h[8:1]/5,,6h[8:1]/4,,
4/3h[8:1],,3h[8:1],,3h[8:1]/7,,3h[8:1],,
5/6h[8:1],,6h[8:1],,6h[8:1]/2,,6h[8:1],,
5h[8:1]/6,,4h[8:1]/5,,3h[8:1]/4,,2h[8:1]/7,,8,1,6,3,7,2,
5,4,37,,5,,26,,4,,78,,56,,34,,12,,
8-4[8:1],,5-2[8:1],,6,,7h[4:1],,{12}8x,1,2,8x,7,6,1x,2,3,7x,6,5,
{8}2x/4x,,{12}1,8,1,8,1,8,2,7,2,7,2,7,{8}3,6,3,6,4,5,
2,2,8,8,{16}2b,3,4,5,6b,5,4,3,
{8}1,1,7,7,{16}3b,4,5,6,7b,6,5,4,
{8}1h[64:1],,,,,,,,,,,,,,,,,,,,,,,,
6,5,6,5,6,,7h[4:2],,8,,1,,3,4,3,4,3,,2h[4:2],,1,,8,,6,5,6,5,6,,7h[4:2],,8,,1,,
2,4,2,5,2,6,3,4,3,5,3,6,
4h[4:2],,5,,5,6,74,,,,7h[4:2],,4,,4,3,25,,,,
3h[4:2],,8,,8,7,61,,,,2h[4:1]/7h[4:1],,,,4h[4:1]/5h[4:1],,,,
2,,2,,52,36,74,,7,,7,,7,,47,63,25,,2,,
3,,3,,83,27,61,,6,,2h[4:1]/7h[4:1],,,,4h[4:1]/5h[4:1],,,,
1b,,,,,,,,
{16}3b,4,3,,5,,2,,8,,1,,7,,5,,6,,,,
{12}3,4,3,4,,,6,5,6,5,,,4,5,4,5,6,7,81,2,3,
{8}4h[4:1]/5,,,,6h[8:3],,{12}5,4,3,2h[8:3],,,4,5,6,7,,,{8}8,8,17,,
2,13,,6,57,,{12}2,3,4,8,7,6,1,2,3,7,6,5,
{8}1h[4:1],,{16}}8b,7,6,5,2h[4:1],,,,7b,6,5,4,1h[4:1],,,,4,,4,,,,
35,,35,,,,
{8}8h[4:1],,{16}}1b,2,3,4,7h[4:1],,,,2b,3,4,5,8h[4:1],,,,5,,5,,,,
64,,64,,,,
{16}3b/7b,,,,1,28,37,46,5,,,,37,,,,
2b/6b,,,,8,71,62,53,4,,,,62,,,,
48,,,,4b/8b,37,26,15,48,,,,4b/8b,15,26,37,
48,,,,26,,26,,,,37,,37,,,,
{8}1b>1b[4:26]/5b<5b[4:26],,,,,,,,,,,,,,,,,,,,,,,,,,,,,,,,,,,,,,,,,,,,,,,,,,,,,,,,,,,,,,,,
B1,,B5,,B2,,B6,,B3,,B7,,B4,,B8,,B1,,B5,,B2,,B6,,B3,,B7,,B4,,B8,,
E2,E3,E4,E5,E6,E7,E8,E1,E2,E3,E4,E5,E6,E7,E8,E1,
{16}D2,E3,D4,E5,D6,E7,D8,E1,D2,E3,D4,E5,D6,E7,D8,E1,
{8}Ch[4:2],,,,,,,,
{16}2,,2,,4,,4,,3,,3,,7,,7,,5,6,5,,7,,5,6,5,,7,,1,,1,,4,,4,,3,,3,,8,,8,,2,,2,,
4,3,4,,2,,4,3,4,,2,,8,,,,,,,,
2,,2,,4,,4,,3,,6,5,6,,3,,6,5,6,,4,,4,,7,,7,,2,1,2,1,2,,8,,2,1,2,,6,,6,,
4,5,4,5,4,5,4,5,4,,7x,,1x,,8x,,C,,
