&title=Dies Irae
&artist=お月さま交响曲
&first=1.45
&des=Ire of Schlaf
&lv_5=14+
&des_5=Ire of Schlaf
&inote_5=
(172){32}8b/1b,7/2,6/3,5/4,,,,,{4}3/6h[8:5],2,1,
{6}8b<3[12:7],E1,E2,E3,E4,E5,
{4}2b/7b,6/3h[8:5],7,8,
{6}1b>6[12:7],E1,E8,E7,E6,E5,
{4}7b/2b,5/4,{6}5/6h[3:1],4,3,
5/2h[3:1],6,7,3/6,{12},{4}1/8V64[4:1],
{8}8/3b,2,1V35[4:1],1,1/8b,7,6,6,
{16}3,6,3,6,2,7,2,7,{2}1x/8x,
{8}5/4,{16}3,4,3,6,4,5,{8}4,3/5,2,4/6,
7,{16}6,5,6,3,5,4,{8}5,6/4,2,5/3,
7,{16}5,6,5,7,3,4,{8}3,5x/2,6,7/5,
3/6,{16}4,5,{8}4,{16}7,8,{8}7,{16}2,8,2,8,2,8,
1>6[4:1],1x,1x,1x,{4}1x,{16}7-3[8:1],7x,,,,,,,1x,
2,3,4,8x,7,6,5,2,3,4,5,7,6,5,4,
2-4[8:1],2,{8}5v8[8:1],{24},,,,,,,,,,,,7>4[4:3]/2<5[4:3],3/6,{6}5/4,
{1}7b/2b,
{8}2/7,{16}1,8,1,8,1,8,{8}1,3/6,{16}4,5,4,5,
{8}4b,6,5/3h[8:1],6,5/2-8[8:1],6,5/2,6,
5/2h[8:1],7,6/1-5>3[4:1],7,7/1,6,7,6,
7/2x-8-3pp4[4:3],7,2/7,7,7,7,7,7,
7b,8,5/7,1,2/4,7,4/6,2,
5/3,3,4/6h[4:1],3,4,{16}5h,5h,{8}5h,6/4,
3/7h[8:1],2,3/8-4<6[4:1],2,2/8,3,2,3,
2/7-1-6qq5[4:3],2,7/2,2,2,2,2,2,
2b,{16}3,4,2,5,3,4,{8}3,5x/2x,{16}6,5,7,4,
{8}6/5,7,{16}5b/4,5,{8}3,4/7,3,{16}5/4,4,{8}6,
5/2h[8:1],6,{16}5/4b,5,{8}3,4/7h[8:1],3,{16}4/5b,4,{8}6,
5/2h[8:1],7,{16}5/3b,3,{8}6,4/5h[8:1],1,{16}5b/3,5,{8}2,
3x/6x-8-5-1[2:1],2,1,2,3,4,2,3,
4/5,7/2,{16}6/4-2[12:1],6,{8}5,4/7,5,{16}3,3,{8}4,
5/3,1,{16}7,7,{8}8,7/1h[8:1],8,{16}2,2,{8}1,
8/2,3/6,{16}4,4,{8}6,2,6/3,{16}5,5,{8}3,
{6}7/2b,{24}B8,B7,B6,B5,B4,B3,B2,B1,{6}B8/C,{24}E1,E2,E3,E4,E5,E6,E7,E8,
{6}E1/C,{12}8xh[3:1],2x,2,2,{6}2b,{12}3xh[3:1],5x,5,5,
{6}5b,{12}1h[3:1],7,7,7,{6}7b,{12}5h[3:1],3,3,3,
{4}3bp1[2:1],{8}3/6x,7x,,8,{4}7p5[2:1],
7/1b,2,4,{16}6bh[16:3],4,4,4,
{6}7,{12}3bh[4:1],5,5,5,{6}2,{12}7bh[4:1],1,1,1,
{6}6,{12}2bh[4:1],8,8,8,{6}3,{12}3bh[3:1],5,5,5,
{4}4x-6[8:1],{8}1/4,1-3[8:1],,1,5-7[8:1],5,
5,2,3/6,{16}6,4,{12}5,2,3,2,7,6,
{8}7,4/8h[16:1],,8,8,4/8h[16:1],,8,
8,7/2h[16:1],,2,2,5/2h[16:1],,2,
2/3h,3/4h,{16}5,4,5,4,{8}5,{16}5,4bh[16:3],,,{8}6,
7/6h,8/7h,{16}1,8,1,8,{8}1,{16}1,8bh[16:3],,,{8}2,
{6}4/2b,7/5b,1/3b,6/8b,5/4b,2h[24:7]/7h[24:7],
{4},{32}1b,2,3,4x,,,,,8b,7,6,5x,,,,,1b,2,3,4,5,6,7,8,
{4}1b/5b,{8}4/2,5/7,4/5,{16}7/2,1,{8}8,2,
8b/2-6[8:1],3/5x,2,5,7/2>4[8:1],1/5x,2/8,6,
8/2-6[8:1],5/3,2/6,8x,{4}2/7h[8:1],6/1-7-2pp5[4:3],
1b,8b,7,6,
5b/4,{8}5/7,2/4,7/2,{16}6/3,5,{8}4,7,
1b/7-3[8:1],4/6,7,4,2/7<5[8:1],8/4x,7/1,3,
1/7-3[8:1],6/4x,7/3,1,7x-5[8:1],4/8,2/7,3,
1/7-3[8:1],3/6,{4}7/4x-1[8:1]*-2[8:1],4b-7[8:1]*-6[8:1],4b,
4b/5b,{16}3,4,2,4,3,5,4,5,3,6,4,6,
3,5,4,5,3,4,2,4,3,6,5,6,4,5,3,5,
4,6,4,6,3,5,2,5,3,6,4,6,5,7,4,7,
5,6,4,6,3,4,2,4,3,5,4,6,3,5,4,6,
{6}2b/7b,1/8,1/3,3/5,5/7,1/7,
1/3,5/7,2/4,3/6,{12},{4}1b<6[8:1],
{8}1h[8:1],,,2b<6[16:3],3,2h[8:1],,,5/4,
{24}3,4,3,{4}4,{8}1/7,{16},,,,6,5,
{8}6,{24}2,1,2,{8}1,2,{4}2/8,{12}3/6,4,5,
{8}3/6,{24}4,6,4,{4}6,{8}2/8,{16},,,,3,4,
{8}3,{24}8,7,8,{8}7,7,{4}6/1,{12}7/2,1,8,
{4}2h/7h,{8}3/8,3,3/6,3,3/4,3,
3/6,{24}3,7,,{12}3,{24}5,3,,,{8}3/8,{24}3,1,,{12}3,{24}7,3,,,{4}4h[8:1]/8h[8:1],
{8}6/1,6,6/3,6,6/5,6,
6/3,{24}6,2b,,{12}6,{24}4b,6,,,{8}6/2,{24}6,1b,,{12}6,{24}3b,6,,,{4}2h[8:1]/7h[8:1],
{8}1,1/8,2,{24}2,4,,{12}2,{24}5,2,,,{8}2/7,
{24}7,5,,{12}7,{24}3,7,,,{8}2/7,6,{4}5/4>1[4:1],
{8}5,6,7,8<5[4:1],1,2,3,4,
6/3,{24}4,5,,{12}2,{24}7,2,,,{2}5h[4:1]/4h[4:1],
{24}B3,B4,{12}B5,{24}8x,7,{12}6,{24}B1,B2,{12}B3,{24}7x,6,{12}5,{24}E8,E1,{12}E2,{24}5,4,{12}3,
{24}1,8,{12}7,{24}4,5,{12}6,{24}1,2,{12}3,{24}5,6,{12}7,{24}3<1[0.2907##0.5233],2,{8}1,3b,
,,,3bh,{24}2x,4,2,4,,,7x,5,7,5,,,3x,
1,3,1,,,8x,6,8,6,,,2x,7,2,7<2>7[8:5],,,,,,{8}7,
,,,8v5[8:1],8,8pp3[2:1]*pp3[2:1],,7h[4:1],
,,6pp7-5[8:3],6,{2}4h[4:1]/A6,
{24}2,5,3,4,,,6,4,5,3,,,2,5,3,4,,,7,5,6,4,,,3,
6,3,6,3,6,{8}3,{24}2,7,2,7,2,7,2,,,1<2[3:2],8,1,8,1,8,
{2}1b,{4}1bs5[8:1]*z5[8:1],1b,
,8b<5[8:1]*>3[8:1],8w4[8:1],{32}8b,B8,Cf,B5/B3/B4,,,,,{8}7/1,
7/1,3,3,6,{16}6,4h[8:1],,,{8}6,
{4}4/5,3<6[8:1],3/7>2[8:1],7,
{8}4/8,4/8,7h[4:1],2h[4:1],,8,,1/8,
1,2/7,{16},,7,5,{12}6,4,5,2,4,3,
{4}4h[8:1]/5pp8[2:1],4,3,2,
8h[8:1]/1pp4[2:1],7,6,5,
{8}5/6,6,6/7,7,7/8,8,1/8,1,
1/2,2,2/3,3,{4}3/4bw8[8:1],{32}4,B4,Cf,B7/B8/B1,,,,,{4}5b/3b,
{16}2,5,4,5,3,6,5,6,7,4,5,4,
6b,3,4,3,7x,5,6,4,5b,3,4,2,5b,1,7,3,
6b,1,8,3,7b,4,{24}6,5,{48},,{16}2bx,4,3,5,4b,6,5,7,
4b,8,2,6,3,8,1,6,2,5,4,5,{4}3b/6,
{6}3/6h[6:1],2h[6:1],{12}7,4,{6}4,6/3h[6:1],7h[6:1],
{12}2,5,{6}5,{12}3,6,{4}5/4,2-6[8:1]*-4[8:1],
{8}2,,,7-3[8:1]*-5[8:1],5,7,{32},,,,,,,,5/1v6b[12:1]*v4b[12:1],
2,3,4,5,6,7,8,{24}1x-6-8-5[2:1]*-4-2-5[2:1],Cf,,,,,,,,,,,,,,,,,{2}A5f/E6f/E5f,
{24}5,7,5,7,{12}5h[24:1],{24}2,4,2,4,{12}2h[24:1],
{4}6qq1>3[2:1],6bh[2:1],{24},,,,,,,,,,,,3b,
4,3,4,{12}2h[24:1],{24}6b,5,6,5,{12}7h[24:1],{24}4,5,4xh[24:7],5xh[4:1],,,,,,,,,3,
4,{12}3,{24}5,4,{12}5,{24}2,3,{12}2,{24}6,5,{12}6,{24}3,4,{12}3,{24}7,6,{12}7,
{24}2,4,{12}2,{24}7,5,{4}7,{24}7b/5b,6/4,5/3,4xh[8:1]/2xh[8:1],,,,,,,,,{4}8b-2-6-4[4:1]/1b-7-3-5[4:1],
1/8,{16},,,,6,5,6,5,
7,3,4,2,8,6,7,1,3,2,{8}1b/8b,
E
