&title=粛清マーチ
&artist=MILGRAM/DECO*27/田中美海
&first=-0.07
&des=标量
&lv_5=13
&des_5=标量
&inote_5=
(138){4},{12}E8,B1,E6,E3,B7,E2,B6,B3,B5,
{4}B4,{12}Ch[4:3],E1,E2,E3,E4,E5,E6,E7,E8,
{4}E1/B1/B8,6h[4:1]/4>7[2:1],,7>2[4:1],
,5h[2:1],,4qq2[8:1],
,5pp7[8:1],,1h[4:1],
8qq5[4:3],2/8,,,,5x-1[2:1]/3x-7[2:1],
,,,2x-6[2:1]/1xv3[2:1],
,,,3xqq4[2:1]/5xpp4[2:1],
,,,1xv4[2:1]/7xv4[2:1],
,,,5-8b[8:1],
{8}5/4,,,1,
1,1,{4}2V47[4:1],7V52[4:1],8,
8,5-8b[8:1],{8}5/3,,,1,
1,1,{4}2-5[8:1],8-4[8:1],3p7[8:1],
,5-8b[8:1],{8}5/2,,,2/6,
{4}2-7[8:1]/6-3[8:1],6/2,1v4[8:1],7v4[8:1],
,5-8b[8:1],{8}5/1,,,1x,
{4}1x<5[4:1],5x>1[4:1],1<5[4:1],5-3[8:1],
8,{16}6,5,{8}6,7/4,3/8,{16}1-5[8:1],8,1,8,
{4}1b,{16}3,4,{8}3,2/5,6/1,{16}8-4[8:1],1,8,1,
{4}8b,{8}8/7-5[8:1],8,{16}7/1,2x,{8}3x,1/2-4[8:1],1,
{16}2/8,7x,{8}6x,{4}5-8b[8:1],{2}5b,
{8}6<2[4:1],3,{4}2<6[4:1],{8}6pp3[16:5],,,2,
2-5[8:1],1,2/8<5[8:1],1,8,{16}3x,2,{4}6b/1,
{8}3>7[4:1],6,{4}7>3[4:1],{8}3qq6[16:5],,,7,
7-4[8:1],8,7/1>2>3<4[8:1],8,1,{16}6x,7,{8}3b/8,7,
3/6<3[4:1],7/4,{4}3>6[4:1],6-8-4[4:1],3-8[8:1],
3,{16}7,8,{8}7,1/6,5/2,3b>7[4:1],3,
7<4[4:1],7,{4}4qq1[2:1],{8}6b,5h[16:3],,6,
7b,8b,3/6,{16}7/4,5,6,4,7,3,8w4[8:1],2,8,1,
{4}8b,{8}2-8[8:1],{16}8v5[8:1],2,,,{8}6<1[8:1],6,6,
4b,4,7-1[8:1],{16}1v4[8:1],7,,,{8}3>8[8:1],3,3,
5b,{16}6,5,6xh[16:1],1,8,1,{8}8xh[16:1],{16}7,2,6x,3,6,3,
{4}1v4[8:1]/7v4[8:1],7b/1b,5h[2:1]/3h[8:1],Ch[4:1],
{8},7,7>2[8:1],{16}2v5[8:1],7,,,{8}3-8[8:1],3,3,
5b,5,2<7[8:1],{16}7v4[8:1],2,,,{8}6-1[8:1],6,6,
4b,{16}3,4,3xh[16:1],8,1,8,{8}1xh[16:1],{16}2,7,3x,6,3,6,
{4}8-5[8:1]*-3[8:1],8b,{8},4/8b-4[8:1],,,,,{4}3h[4:3],
,,4h[4:3],
,,5h[4:3],
{8},,,,6h[4:3],B1,E3,B4,
,,{4}3h[4:3],{8},1,,2,
2h[4:3],,,8,,1,{4}1h[4:3],
{8},7,,8,8h[4:3],B1,E3,B4,
,,{4}3-6[8:1],{8},5h[8:3],,,6p3[8:3],
,,5h[8:3],,,{4}2-5-8[4:1],
{8},7h[8:3],,,1h[8:3],B5,E7,2h[8:3]/B8,
,,{4}6-3[8:1],{8},4h[8:3],,,3p5[4:1],
,,4h[8:3],,,{4}8-6-1-5[2:1],
{8},1h[8:3],,,,2,3,4x,
5x-1[8:1],5x,{16}5/6h[8:1],,,6,{8}7,{16}8,1,8-4[8:1],1,8,1,
{4}8b,{16}3h[8:1],,,3,{8}2,{16}1,8,1-5[8:1],8,1,8,
{4}1b,{8}4/7-4[8:1],4,{16}3/7,2x,{8}1x,5/2-5[8:1],5,
{16}6/2,7x,{8}8x,1/8-4[8:1],8,8/1-5[8:1],1,{4}1/6>1[4:1],
6b,Ch[2:1],{8},,,,1,
2,{16}3/B7,B6,{8}B5,{16},,,,B2/E8,B3,{8}B4,
{16},,,,B1/E6,B5,{8}B4,{16},,,,E4/B8,B4,{8}B5,
7,6,{16}5/B3,B2,{8}E2,{16},,,,B6/E4,B7,{8}E8,
{24},,,,,,{12}B1/E2/B2,,B3/E4/B4,,E6/B5/B6,,{4}E8/B7/B8,
{8},,6/1,{16}7-4[8:1],8,,8,{8}7,2,{16}2-5[8:1],1,
,1,{8}2,6,{16}6-1[8:1],5,,5,{8}6,3,{16}3-8[8:1],4,
,4,{8}3,{12}7,7,7,5,5,5,3,3,3,
1<1b[2:1],1,1,1,,,,,,{4}Cf,
{8}3>7[4:1],6,{4}7V13[4:1],{8}3-8-4b[4:1],,,7,
7-4[8:1],8,7/1>4[8:1],8,{16}1-5[8:1],6,7,8,{4}1bx,
{8}6<2[4:1],3,{4}2V86[4:1],{8}6-1-5b[4:1],,,2,
2-5[8:1],1,2/8<7<6>5[8:1],1,{16}8-4[8:1],3,2,1,{8}8bx,6h[8:1],
3>6[4:1],2/5,{4}6<3[4:1],3-1-5b[4:1],6-1[8:1],
6-3[8:1],{8}8/6,8,7/4,4/6,6b<2[4:1],6,
2>5[4:1],2,{4}5pp8[2:1],{8}3b,4h[16:3],,3,
{4}2bh[8:1],{8}5/4,{16}4,5,3,6,2,7,1w5[8:1],8,1,8,
{4}1b,{8}7-1[8:1],{16}1v4[8:1],7,,,{8}3>8[8:1],3,3,
5b,5,2-8[8:1],{16}8v5[8:1],2,{32},,,,,6<1[8:1],,,,6,,,,6,,,{8}4b,
{16}3,4,3xh[16:1],8,1,8,{8}1xh[16:1],{16}2,7,3x,6,3,6,
{4}8v5[8:1]/2v5[8:1],2b/8b,4h[2:1]/6h[8:1],Ch[4:1],
{8},2,2<7[8:1],{16}7v4[8:1],2,,,{8}6-1[8:1],6,6,
4b,4,7>2[8:1],{16}2v5[8:1],7,,,{8}3-8[8:1],3,3,
5b,{16}6,5,6xh[16:1],1,8,1,{8}8xh[16:1],{16}7,2,6x,3,6,3,
{4}1-4[8:1]*-6[8:1],1b,5h[2:1]/3h[8:1],Ch[4:1],
{16},,7,8,{8}7>2[8:1],{16}2q6[8:1],7,,,{8}4>1[8:1],4,4,
5b,5,2<7[8:1],{16}7p3[8:1],2,,,{8}5<8[8:1],5,5,
4b,{16}3,4,3xh[16:1],8,1,8,{8}1xh[16:1],{16}2,7,3x,6,3,6,
{4}8-6>5[8:1]/2-4<5[8:1],2b/8b,4h[2:1]/6h[8:1],Ch[4:1],
{16},,2,1,{8}2<7[8:1],{16}7qq5[8:1],2,,,{8}6-1[8:1],6,6,
4b,4,7>2[8:1],{16}2pp4[8:1],7,,,{8}3-8[8:1],3,3,
5b,{16}6,5,6xh[16:1],1,8,1,{8}8xh[16:1],{16}7,2,6x,3,6,3,
{4}1w5[8:1]*w5[8:1],1b,{8},1b/2b-7[8:1],,,{1}C,
E
