&title=ONLINE
&artist=HiTECH NINJA
&first=0.02
&des=HiGHER SPiRiTS
&lv_5=13+
&inote_5=(172){1},
{1},
{1}4b>5[1:1]/5b,
{16},,,,,,4x,3x,2xh[8:3],,,,,,5x,6x,
{16}7xh[8:3],,,,,,5x,4x,3xh[8:3],,,,,,1V74[8:3],,
{16},,,,,,2h[8:3],,,,,,4,2,4,2,
{4}4h[2:1],2,2-4[8:1],1,
{8}8h[4:3],,6,,6,,5,5,
{4}5h[2:1],7,7-5[8:1],8,
{16}1,,,1,5,,2,,2>4[8:1]*v8[8:1],,,,2b,,,,
{16}7/5,,,6/4,,,6V47[4:1]/4,,,,,,C,,,,
{16}2/8,,,3/7>5[16:5],,,3/7,,,,,,C,,,,
{16}2/4,,,3/5,,,3V52[4:1]/5,,,,,,C,,,,
{16}1/7,,,2<4[16:5]/6,,,2/6,,,,,,C,,,,
{16}7h[8:1]/5h[8:1],,,6h[8:1]/4h[8:1],,,5V38[4:1]/3,,,,,,2,,,,
{16}7h[8:1]/1h[8:1],,,6h[8:1]/2<4[16:5],,,7/3,,,,,,8,,,,
{16}2h[8:1]/4h[8:1],,,3h[8:1]/5h[8:1],,,4V61[4:1]/6,,,,,,7,,,,
{16}8h[8:1]/2h[8:1],,,7h[8:1]/3h[8:1],,,6h[8:1]/4h[8:1],,,3/5,,,2,4,2,4,
{4}1>8[4:6],1,1,1,
{4}2,3,4,5,
{4}5-8[4:2],5,5,5,
{4}4-1[4:2],4,4,4,
{8}8,8,7,7,6,6,5,5,
{8}1,1,2,2,3,3,4,4,
{16}2,6,2,6,3,7,3,7,4,8,4,8,5,1,5,1,
{16}5v6[8:1]*qq3[8:1],,,,5w1[8:1],,,,5x,,,,7b/3b,,,,
{16}1/8,,3,4,,2,,2,8,,8,4,,7,5,,
{16}2/6,,1,8,,2,,2,4,,4,1,,6,5,,
{16}4/7,,6,5,,7,,7,1,,1,5,,2,4,,
{16}3/7,,8,1,,7,,4,5h[8:1]/3-8[8:1],,,,3/7,,,,
{16}6/1,,6,5,,7,,7,1,,1,5,,2,4,,
{16}7/3,,8,1,,7,,7,5,,5,8,,3,4,,
{16}5/2,,3,4,,2,,2,8,,8,4,,7,5,,
{16}6/2-5[8:1],,1,8,2,,7,,6,6/4,,3,3/5,,,,
{16}1/8,,3,4,,2h[8:1],,1,2,,8,3,,6,5,,
{16}4/7,,1,8,,3h[8:1],,,5h[8:1]/2,,,3h[8:1]/8,,6,5,,
{16}7/4,,6,5,,7h[8:1],,8,7,,1,6,,3,4,,
{16}5/2,,8,1,,6,,3,4-1[8:1]/2h[4:1],,,,4,,,,
{16}8/3,,6,5,,7h[8:1],,8,7,,1,6,,3,4,,
{16}5/2,,8,1,,6h[8:1],,5,7h[8:1],,4,8h[8:1],,3,7,,
{16}2/6,,3,4,,2h[8:1],,1,2,,8,3,,6,5,,
{16}7h[16:1]/4V61[16:5],,7h[16:1],,7h[16:1],,7h[16:1],,7h[16:1],,7x,,6,,5,,
{8}2v5[8:1],5p1[8:1],2,7-3[8:1],,7,8,1,
{8}2v5[8:1],5p8[16:3],2,7-3[8:1],,7,8,1,
{8}2<7[8:1],3,4,5>2[8:1],6,7,8,1,
{8}7v4[8:1],4q8[8:1],7,2-6[8:1],,2,1,8,
{8}7v4[8:1],4q1[16:3],7,2-6[8:1],,2,1,8,
{8}7v4[8:1],4V61[4:1],7,2-6[8:1],,2,8,7,
{8}7-4[8:1],5,7,2-6[8:1],5,2,8,8,
{16}3h[8:1]/7h[8:1],,,6h[8:1]/5h[8:1],,,2h[8:1]/8h[8:1],,,1,1,1,1-5[8:1]*s5[8:1],,,,
{1}1b>8[4:13]`Cf,
{1},
{4}B1,B2,B3,B4,
{4}B5,B6,B7,B8/B1,
{16}3h[16:3]/4,,,4,3,,3-1[8:1],,,,5,,5,,,,
{16}6h[16:3]/5,,,5,6,,6-8[8:1],,,,4,,4,,,,
{16}2h[16:3]/1,,,1,3,,3V52[4:1],,,,8,,8,,,,
{16}7h[16:3]/1,,,8,6,,6V47[4:1],,,,1,,1,,,,
{4}2-4[8:1]/8h[8:1],8h[8:1],5-2[8:1]/8h[8:1],8h[8:1],
{4}1h[8:1]/6-4[8:1],1h[8:1],1h[8:1]/5-8[8:1],1h[8:1],
{4}2-5[8:1]/7h[8:1],7h[8:1],4p8[8:1]/7h[8:1],7h[8:1],
{4}1h[8:1]/6-3[8:1],1h[8:1],1h[8:1]/4q8[8:1],1h[8:1],
{16}1/8,,2,4,3,4,2,,8/1,,7,5,6,5,7,,
{16}2/8,,3,4,3,4,1,,1/7,,6,5,6,5,8,,
{16}1,8,3,6,2,7,4,5,3,6,4,5,3,6,2,8,
{16}1,1,1,1,1,,2/8,,4,5,3,6,1b,,,,
{24}1x-7[8:1]/7x,2,3,4,,,5-1[8:1]*-2[8:1],,,4,,,5,,,,,,3/8,,,7,,,
{24}1x-6[8:1]/6x,2,3,4,,,5-1[8:1]*-2[8:1],,,4,,,5,,,,,,3/8,,,7,,,
{16}4>8[16:3],5,3,6,4pp7[8:3],,5,,4x,,,,2,,3,,
{16}8,5,6,5,7,,7,,5h[8:1]/6h[8:1],,,8h[8:1]/2h[8:1],,,4/6,,
{24}8x-2[8:1]/2x,7,6,5,,,4-8[8:1]*v7[8:1],,,5,,,4,,,,,,6/1,,,2,,,
{24}8x-3[8:1]/3x,7,6,5,,,4-8[8:1]*v7[8:1],,,5,,,4,,,,,,6/1,,,2,,,
{16}5<1[16:3],4,7,3,5qq8[8:3],,4,,5x,,,,7,,6,,
{16}1h[8:1]/5h[8:1],,,3h[8:1]/6h[8:1],,,2/1,,{32}8x,7,6,5,4/3,,,,2b/1b,,,,,,,,
{16}5,4,6,2,8-4[8:1],1,7,2,8>3[8:1],,,,8/5,,6,,
{16}6,5,8,3,1-6[8:1],2,8,3,1,,,,4,5,3,6,
{16}4,5,3,7,1-5[8:1],8,2,7,1<6[8:1],,,,1/4,,3,,
{16}2pp8[16:5],5,1,4,2,,6,,7h[8:1],,,1xh[8:1]/6xh[8:1],,,2/4,,
{8}3/8,6/5,5/4,4/3,3-6[8:1]/2-7[8:1],,,,
{8}8/5,,1/6,2/7,3V58[4:1]/8-5[8:1],,8b/3b,,
{8}2-5[8:1],2,7-4[8:1],7,1-5[8:1],1,8,8,
{16}4,5,2,7,1,8,3,6,
{32}1,8,7,6,5,4,3,2,1x-4[8:1]*-6[8:1],,,,,,,,
{1}1bs5[4:9],
{1},
{1}E1/B8/E8,
{16}7s3[16:57],,,8,,,8,,,8,,,7h[16:1],,7h[16:1],,
{8}7h[16:1],7h[16:1],7h[16:1],7h[16:1],7h[16:1],7h[16:1],7h[16:1],7h[16:1],
{8}7h[16:1],7h[16:1],7h[16:1],7h[16:1],7h[16:1],7h[16:1],7h[16:1],7x-3[4:1],
{1},
E
